<?xml version="1.0" standalone="no"?>
<!DOCTYPE svg PUBLIC "-//W3C//DTD SVG 1.1//EN" "http://www.w3.org/Graphics/SVG/1.1/DTD/svg11.dtd" >
<svg xmlns="http://www.w3.org/2000/svg">
<metadata>
<json>
<![CDATA[
{
	"fontFamily": "Linearicons",
	"description": "Font generated by IcoMoon.",
	"majorVersion": 0,
	"version": "Version 1.0",
	"fontId": "Linearicons",
	"psName": "Linearicons",
	"subFamily": "Regular",
	"fullName": "Linearicons"
}
]]>
</json>
</metadata>
<defs>
<font id="Linearicons" horiz-adv-x="1024">
<font-face units-per-em="1024" ascent="896" descent="-128" />
<missing-glyph horiz-adv-x="1024" />
<glyph unicode="&#x20;" horiz-adv-x="400" d="" />
<glyph unicode="&#xe000;" glyph-name="error" data-tags="error" d="M554 320.667v256h-84v-256h84zM554 148.667v86h-84v-86h84zM512 788.667c236 0 426-190 426-426s-190-426-426-426-426 190-426 426 190 426 426 426z" />
<glyph unicode="&#xe001;" glyph-name="error_outline" data-tags="error_outline" d="M512 20.667c188 0 342 154 342 342s-154 342-342 342-342-154-342-342 154-342 342-342zM512 788.667c236 0 426-190 426-426s-190-426-426-426-426 190-426 426 190 426 426 426zM470 576.667h84v-256h-84v256zM470 234.667h84v-86h-84v86z" />
<glyph unicode="&#xe002;" glyph-name="anchor1" data-tags="anchor" horiz-adv-x="852" d="M426.218 629.41c-73.499 0-133.3 59.801-133.3 133.3s59.801 133.29 133.3 133.29c73.499 0 133.3-59.791 133.3-133.29s-59.801-133.3-133.3-133.3zM426.218 849.12c-47.649 0-86.419-38.761-86.419-86.41s38.77-86.419 86.419-86.419c47.649 0 86.419 38.77 86.419 86.419s-38.77 86.41-86.419 86.41zM426.218-128c-12.948 0-23.44 10.492-23.44 23.44v740.092c0 12.948 10.492 23.44 23.44 23.44s23.44-10.492 23.44-23.44v-740.092c0-12.948-10.492-23.44-23.44-23.44zM426.218-128c-235.012 0-426.218 191.197-426.218 426.209 0 12.948 10.492 23.44 23.44 23.44h87.629c12.948 0 23.44-10.492 23.44-23.44s-10.492-23.44-23.44-23.44h-63.476c12.161-198.276 177.33-355.888 378.625-355.888s366.464 157.612 378.625 355.888h-62.304c-12.948 0-23.44 10.492-23.44 23.44s10.492 23.44 23.44 23.44h86.457c12.948 0 23.44-10.492 23.44-23.44 0-235.012-191.207-426.209-426.218-426.209zM559.931 454.949h-267.415c-12.948 0-23.44 10.492-23.44 23.44s10.492 23.44 23.44 23.44h267.415c12.948 0 23.44-10.492 23.44-23.44s-10.492-23.44-23.44-23.44z" />
<glyph unicode="&#xe003;" glyph-name="add_alert" data-tags="add_alert" d="M682 318.667v86h-128v128h-84v-128h-128v-86h128v-128h84v128h128zM806 156.667l90-90v-46h-768v46l90 90v248c0 138 96 256 226 286v30c0 38 30 68 68 68s68-30 68-68v-30c130-30 226-148 226-286v-248zM428-21.333h168c0-46-38-86-84-86s-84 40-84 86z" />
<glyph unicode="&#xe004;" glyph-name="archery4" data-tags="archery4" horiz-adv-x="1248" d="M502.764-109.529c-277.23 0-502.764 225.534-502.764 502.764 0 277.22 225.534 502.764 502.764 502.764s502.764-225.545 502.764-502.764c0-277.23-225.534-502.764-502.764-502.764zM502.764 842.738c-247.851 0-449.502-201.651-449.502-449.502 0-247.862 201.651-449.491 449.502-449.491 247.862 0 449.502 201.64 449.502 449.491s-201.64 449.502-449.502 449.502zM502.764 62.69c-182.264 0-330.546 148.282-330.546 330.535 0 182.264 148.282 330.546 330.546 330.546s330.546-148.282 330.546-330.546c0-182.253-148.272-330.535-330.546-330.535zM502.764 670.519c-152.895 0-277.284-124.389-277.284-277.284s124.389-277.273 277.284-277.273c152.895 0 277.284 124.389 277.284 277.273 0 152.895-124.389 277.284-277.284 277.284zM502.764 234.897c-87.308 0-158.328 71.031-158.328 158.328s71.020 158.328 158.328 158.328 158.328-71.020 158.328-158.317-71.020-158.338-158.328-158.338zM502.764 498.301c-57.928 0-105.065-47.137-105.065-105.065s47.137-105.065 105.065-105.065c57.928 0 105.065 47.137 105.065 105.065s-47.126 105.065-105.065 105.065zM92.581-128c-7.212 0-14.402 2.908-19.654 8.65-9.928 10.855-9.172 27.707 1.672 37.625l118.839 108.719c10.866 9.917 27.707 9.172 37.625-1.672 9.928-10.855 9.172-27.707-1.672-37.625l-118.839-108.719c-5.113-4.666-11.547-6.977-17.971-6.977zM912.948-128c-6.423 0-12.858 2.312-17.971 6.977l-118.86 108.719c-10.855 9.928-11.601 26.78-1.672 37.625 9.928 10.866 26.78 11.59 37.625 1.672l118.85-108.719c10.855-9.928 11.601-26.78 1.672-37.625-5.241-5.731-12.442-8.65-19.643-8.65zM1124.74 366.605h-621.976c-14.711 0-26.631 11.92-26.631 26.631s11.92 26.631 26.631 26.631h621.976c14.711 0 26.631-11.92 26.631-26.631s-11.92-26.631-26.631-26.631zM1220.985 301.465c-44.826 0-96.671 57.055-111.499 74.546-8.426 9.939-8.426 24.501 0 34.429 14.828 17.491 66.674 74.546 111.499 74.546 14.711 0 26.631-11.92 26.631-26.631v-130.269c0-14.69-11.92-26.621-26.631-26.621zM1166.093 393.257c9.268-9.225 19.196-17.971 28.261-24.767v49.534c-9.076-6.807-19.004-15.542-28.261-24.767z" />
<glyph unicode="&#xe005;" glyph-name="armchair" data-tags="armchair" horiz-adv-x="1166" d="M883.079 365.161c-13.54 0-24.511 10.971-24.511 24.511v339.984c0 64.691-52.631 117.322-117.322 117.322h-316.757c-64.691 0-117.312-52.631-117.312-117.322v-339.984c0-13.54-10.971-24.511-24.511-24.511s-24.511 10.971-24.511 24.511v339.984c0 91.722 74.613 166.344 166.335 166.344h316.757c91.722 0 166.354-74.623 166.354-166.344v-339.984c-0.010-13.53-10.981-24.511-24.521-24.511zM907.59-57.211h-649.436v329.581h649.436v-329.581zM307.177-8.188h551.39v231.535h-551.39v-231.535zM307.177-57.211h-178.11v383.937c-73.074 11.775-129.067 75.289-129.067 151.628 0 84.692 68.897 153.599 153.579 153.599 84.692 0 153.599-68.907 153.599-153.599v-535.565zM178.090-8.188h80.064v486.542c0 57.661-46.915 104.576-104.576 104.576-57.651 0-104.556-46.905-104.556-104.576 0-57.651 46.905-104.556 104.556-104.556h24.511v-381.986zM1036.658-57.211h-178.090v535.565c0 84.692 68.897 153.599 153.579 153.599s153.579-68.907 153.579-153.599c0-76.338-55.994-139.853-129.067-151.628v-383.937zM907.59-8.188h80.045v381.986h24.511c57.651 0 104.556 46.905 104.556 104.556 0 57.661-46.905 104.576-104.556 104.576s-104.556-46.915-104.556-104.576v-486.542zM282.666-128c-13.54 0-24.511 10.971-24.511 24.511v51.209c0 13.54 10.971 24.511 24.511 24.511s24.511-10.971 24.511-24.511v-51.209c0-13.54-10.971-24.511-24.511-24.511zM883.079-128c-13.54 0-24.511 10.971-24.511 24.511v51.209c0 13.54 10.971 24.511 24.511 24.511s24.511-10.971 24.511-24.511v-51.209c0-13.54-10.971-24.511-24.511-24.511z" />
<glyph unicode="&#xe006;" glyph-name="attach" data-tags="attach" horiz-adv-x="976" d="M257.415-128c-65.953 0-131.907 25.1-182.116 75.309-100.408 100.429-100.398 263.804 0.030 364.212l529.44 529.44c73.395 73.385 192.798 73.375 266.173 0 35.943-35.943 55.535-83.216 55.535-133.466s-19.602-97.523-55.17-133.081l-488.495-488.455-6.48-5.791c-41.461-40.884-108.448-40.702-149.706 0.537l-0.972 0.992c-19.845 19.835-30.911 46.524-30.911 74.884 0 28.37 11.066 55.059 31.144 75.127l253.75 253.76c9.882 9.892 25.91 9.892 35.791 0 9.892-9.882 9.892-25.91 0-35.791l-253.74-253.77c-10.52-10.52-16.311-24.492-16.311-39.335s5.791-28.815 16.311-39.335l0.972-0.992c21.444-21.444 56.74-21.434 78.417 0.243l494.438 493.709c26.011 26.011 40.338 60.557 40.338 97.29s-14.327 71.279-40.338 97.29c-54.016 54.026-141.293 54.026-194.955 0.375l-529.44-529.42c-80.685-80.675-80.695-211.954-0.030-292.619 80.695-80.675 211.974-80.675 292.639 0l529.43 529.45c9.892 9.892 25.91 9.892 35.791 0 9.892-9.882 9.892-25.91 0-35.791l-529.43-529.45c-50.199-50.209-116.153-75.319-182.106-75.319z" />
<glyph unicode="&#xe007;" glyph-name="bell69" data-tags="bell69" horiz-adv-x="752" d="M751.255 44.954h-751.255l20.073 32.641c79.349 129.039 80.326 449.862 80.326 453.084 0 145.042 114.329 263.869 257.589 271.117v72.787c0 11.831 9.587 21.418 21.418 21.418s21.418-9.587 21.418-21.418v-73.284c139.713-10.957 250.059-128.148 250.059-270.628 0-3.221 0.977-324.045 80.309-453.084l20.064-32.632zM73.729 87.79h603.814c-68.657 151.382-69.497 430.201-69.497 442.88 0 126.066-102.566 228.632-228.641 228.632h-7.548c-126.066 0-228.624-102.566-228.624-228.632-0.009-12.679-0.848-291.498-69.505-442.88zM375.628-128c-64.005 0-116.085 52.080-116.085 116.094 0 11.831 9.587 21.418 21.418 21.418s21.418-9.587 21.418-21.418c0-40.394 32.855-73.258 73.249-73.258 40.386 0 73.249 32.864 73.249 73.258 0 11.831 9.587 21.418 21.418 21.418s21.418-9.587 21.418-21.418c0-64.014-52.080-116.094-116.085-116.094z" />
<glyph unicode="&#xe008;" glyph-name="brightness14" data-tags="brightness14" d="M512 60.876c-178.166 0-323.124 144.958-323.124 323.133 0 178.166 144.958 323.124 323.124 323.124 178.175 0 323.133-144.958 323.133-323.124 0-178.175-144.958-323.133-323.133-323.133zM512 662.547c-153.59 0-278.538-124.957-278.538-278.538 0-153.599 124.957-278.547 278.538-278.547 153.599 0 278.547 124.957 278.547 278.547s-124.948 278.538-278.547 278.538zM512-128c-12.315 0-22.293 9.978-22.293 22.293v108.737c0 12.315 9.978 22.293 22.293 22.293s22.293-9.978 22.293-22.293v-108.737c0-12.315-9.978-22.293-22.293-22.293zM512 742.686c-12.315 0-22.293 9.978-22.293 22.293v108.728c0 12.315 9.978 22.293 22.293 22.293s22.293-9.978 22.293-22.293v-108.728c0-12.315-9.978-22.293-22.293-22.293zM1001.707 361.716h-108.737c-12.315 0-22.293 9.978-22.293 22.293s9.978 22.293 22.293 22.293h108.737c12.315 0 22.293-9.978 22.293-22.293s-9.978-22.293-22.293-22.293zM131.030 361.716h-108.737c-12.315 0-22.293 9.978-22.293 22.293s9.978 22.293 22.293 22.293h108.737c12.315 0 22.293-9.978 22.293-22.293s-9.978-22.293-22.293-22.293zM858.265 15.442c-5.707 0-11.405 2.176-15.766 6.527l-76.875 76.875c-8.712 8.712-8.712 22.819 0 31.522 8.712 8.712 22.819 8.712 31.522 0l76.875-76.875c8.712-8.712 8.712-22.819 0-31.522-4.352-4.352-10.050-6.527-15.757-6.527zM242.602 631.096c-5.707 0-11.405 2.176-15.766 6.536l-76.875 76.875c-8.712 8.703-8.712 22.819 0 31.522 8.703 8.712 22.819 8.712 31.522 0l76.875-76.875c8.712-8.703 8.712-22.819 0-31.522-4.352-4.361-10.050-6.536-15.757-6.536zM781.389 631.096c-5.707 0-11.405 2.176-15.766 6.536-8.712 8.703-8.712 22.819 0 31.522l76.884 76.875c8.712 8.712 22.819 8.712 31.522 0s8.712-22.828 0-31.522l-76.884-76.875c-4.352-4.361-10.050-6.536-15.757-6.536zM165.727 15.442c-5.707 0-11.405 2.176-15.766 6.527-8.712 8.712-8.712 22.828 0 31.522l76.884 76.875c8.703 8.712 22.819 8.712 31.522 0 8.712-8.712 8.712-22.828 0-31.522l-76.884-76.875c-4.352-4.352-10.050-6.527-15.757-6.527z" />
<glyph unicode="&#xe009;" glyph-name="button18" data-tags="button18" d="M708.139 163.22c-6.306 0-12.601 2.404-17.419 7.212l-392.277 392.307c-9.616 9.616-9.616 25.213 0 34.829 9.626 9.626 25.213 9.626 34.829 0l392.277-392.297c9.626-9.626 9.626-25.222 0-34.829-4.808-4.818-11.104-7.222-17.409-7.222zM315.861 163.22c-6.306 0-12.601 2.404-17.419 7.212-9.616 9.616-9.616 25.213 0 34.829l392.277 392.307c9.626 9.626 25.213 9.626 34.829 0 9.626-9.616 9.626-25.213 0-34.829l-392.277-392.307c-4.808-4.808-11.114-7.212-17.409-7.212zM512.054-128v24.631l-0.039-24.631c-282.304 0-511.995 229.682-512.015 511.995 0 282.323 229.682 512.005 511.995 512.005s511.995-229.682 511.995-512.005-229.662-511.995-511.936-511.995zM511.995 846.737c-255.16 0-462.733-207.582-462.733-462.742 0.020-255.14 207.602-462.733 462.752-462.733h0.039c255.111 0 462.673 207.572 462.673 462.733s-207.582 462.742-462.733 462.742z" />
<glyph unicode="&#xe00a;" glyph-name="camera122" data-tags="camera122" horiz-adv-x="1332" d="M1265.035-128h-1198.113c-36.905 0-66.922 30.017-66.922 66.922v795.041c0 36.893 30.017 66.922 66.922 66.922h325.898c10.639 0 28.629 8.164 35.643 16.177l36.243 41.419c18.715 21.391 54.258 37.518 82.687 37.518h233.822c28.417 0 63.959-16.127 82.687-37.518l36.243-41.419c7.014-8.026 24.991-16.177 35.63-16.177h329.261c36.893 0 66.922-30.017 66.922-66.922v-795.041c0-36.905-30.017-66.922-66.922-66.922zM66.922 738.377c-2.35 0-4.413-2.063-4.413-4.413v-795.041c0-2.35 2.063-4.426 4.413-4.426h1198.113c2.35 0 4.413 2.063 4.413 4.426v795.041c0 2.35-2.063 4.401-4.413 4.401h-329.248c-28.429 0-63.972 16.127-82.675 37.53l-36.243 41.406c-7.026 8.026-25.004 16.19-35.655 16.19h-233.822c-10.652 0-28.629-8.151-35.63-16.165l-36.255-41.431c-18.728-21.391-54.27-37.518-82.687-37.518h-325.898zM665.985 12.521c-172.388 0-312.633 140.246-312.633 312.633 0 172.375 140.246 312.621 312.633 312.621s312.633-140.246 312.633-312.621c-0.013-172.388-140.258-312.633-312.633-312.633zM665.985 575.266c-137.92 0-250.124-112.204-250.124-250.112 0-137.92 112.204-250.124 250.124-250.124s250.124 112.204 250.124 250.124c-0.013 137.908-112.216 250.112-250.124 250.112zM1290.514 286.648h-176.701c-17.265 0-31.255 13.99-31.255 31.255s13.99 31.255 31.255 31.255h176.701c17.265 0 31.255-13.99 31.255-31.255s-14.002-31.255-31.255-31.255zM230.034 286.648h-187.077c-17.265 0-31.255 13.99-31.255 31.255s13.99 31.255 31.255 31.255h187.077c17.265 0 31.255-13.99 31.255-31.255s-13.99-31.255-31.255-31.255zM665.985 136.851c-103.84 0-188.303 84.462-188.303 188.278s84.475 188.303 188.303 188.303c103.815 0 188.29-84.475 188.29-188.303s-84.462-188.278-188.29-188.278zM665.985 450.922c-69.36 0-125.793-56.433-125.793-125.793s56.433-125.768 125.793-125.768c69.348 0 125.768 56.421 125.768 125.768 0.013 69.373-56.408 125.793-125.768 125.793z" />
<glyph unicode="&#xe00b;" glyph-name="checkmark4" data-tags="check mark4" d="M415.246 186.693l-149.828 149.809c-9.432 9.432-9.432 24.73 0 34.162 9.442 9.442 24.73 9.442 34.162 0l115.667-115.657 309.204 309.214c9.442 9.442 24.73 9.442 34.162 0 9.442-9.432 9.442-24.73 0-34.162l-343.366-343.366zM512.058-128v24.16l-0.039-24.16c-282.31 0-512 229.681-512.019 511.99 0 282.319 229.69 512.010 512 512.010 282.319 0 512-229.69 512-512 0.010-282.319-229.652-512-511.942-512zM512 847.681c-255.676 0-463.681-208.005-463.681-463.681 0.019-255.667 208.034-463.671 463.7-463.671h0.039c255.647 0 463.632 208.005 463.632 463.671 0 255.676-208.014 463.681-463.69 463.681z" />
<glyph unicode="&#xe00c;" glyph-name="clock162" data-tags="clock162" d="M512.052-128v23.439l-0.038-23.439c-282.305 0-511.995 229.681-512.014 511.995 0 282.324 229.681 512.005 511.995 512.005s511.995-229.681 511.995-511.995-229.653-512.005-511.939-512.005zM511.995 849.123c-256.466 0-465.118-208.651-465.118-465.118 0.019-256.466 208.68-465.118 465.137-465.118h0.038c256.438 0 465.062 208.651 465.062 465.118 0.009 256.466-208.642 465.118-465.118 465.118zM513.233 20.498h-0.038c-200.42 0-363.497 163.068-363.516 363.497 0 200.429 163.068 363.488 363.497 363.488s363.497-163.058 363.497-363.488c0-200.429-163.040-363.497-363.441-363.497zM513.177 700.605c-174.59 0-316.62-142.029-316.62-316.61 0.028-174.581 142.067-316.62 316.638-316.62h0.038c174.553 0 316.563 142.029 316.563 316.62 0 174.581-142.039 316.61-316.62 316.61zM507.533 320.233c-13.96 0-27.086 5.438-36.949 15.32-9.872 9.863-15.32 22.989-15.31 36.958 0 13.96 5.447 27.086 15.329 36.949 9.844 9.854 22.961 15.291 36.939 15.291 13.96 0 27.086-5.438 36.949-15.32 20.373-20.401 20.364-53.553-0.019-73.907-9.872-9.854-22.989-15.291-36.939-15.291zM507.533 377.873c-1.013 0-2.494-0.272-3.778-1.566-1.331-1.331-1.603-2.803-1.603-3.816 0-1.003 0.272-2.494 1.575-3.797 2.616-2.616 5.007-2.606 7.613-0.009 2.1 2.109 2.091 5.522-0.019 7.632-1.303 1.284-2.785 1.556-3.788 1.556zM527.915 369.435c-6.3 0-12.582 2.531-17.204 7.51-8.794 9.497-8.232 24.329 1.266 33.124l163.49 151.47c9.516 8.794 24.329 8.222 33.124-1.266 8.804-9.497 8.232-24.329-1.266-33.124l-163.49-151.47c-4.519-4.172-10.229-6.244-15.92-6.244zM473.584 374.61c-5.485 0-10.988 1.913-15.432 5.803l-104.443 91.495c-9.732 8.532-10.716 23.336-2.184 33.077 8.522 9.741 23.336 10.707 33.077 2.184l104.443-91.495c9.732-8.532 10.716-23.336 2.184-33.077-4.641-5.288-11.129-7.988-17.645-7.988z" />
<glyph unicode="&#xe00d;" glyph-name="coffee2" data-tags="coffee2" horiz-adv-x="862" d="M194.653 693.609c-12.469 0-22.572 10.103-22.572 22.572v157.247c0 12.469 10.103 22.572 22.572 22.572s22.572-10.103 22.572-22.572v-157.247c0-12.469-10.103-22.572-22.572-22.572zM314.855 693.609c-12.469 0-22.572 10.103-22.572 22.572v157.247c0 12.469 10.103 22.572 22.572 22.572s22.572-10.103 22.572-22.572v-157.247c0-12.469-10.103-22.572-22.572-22.572zM437.927 693.609c-12.469 0-22.572 10.103-22.572 22.572v157.247c0 12.469 10.103 22.572 22.572 22.572s22.572-10.103 22.572-22.572v-157.247c0-12.469-10.103-22.572-22.572-22.572zM610.008-128h-587.436c-12.469 0-22.572 10.103-22.572 22.572s10.103 22.572 22.572 22.572h587.436c12.469 0 22.572-10.103 22.572-22.572s-10.112-22.572-22.572-22.572zM680.668 177.176h-63.744v45.144h63.744c75.445 0 136.832 61.378 136.832 136.823 0 75.454-61.387 136.842-136.832 136.842h-63.744v45.144h63.744c100.338 0 181.977-81.639 181.977-181.986 0-100.338-81.639-181.968-181.977-181.968zM316.281-55.968c-174.393 0-316.281 141.889-316.281 316.299v383.799h632.581v-383.799c0-174.411-141.889-316.299-316.299-316.299zM45.144 598.986v-338.655c0-149.518 121.637-271.146 271.137-271.146 149.518 0 271.146 121.637 271.146 271.146v338.655h-542.283z" />
<glyph unicode="&#xe00e;" glyph-name="coin18" data-tags="coin18" d="M512.059-128v24.601l-0.039-24.601c-282.304 0-512 229.687-512.020 512 0 282.313 229.687 512 512 512 282.323 0 512-229.687 512-512 0.010-282.313-229.647-512-511.941-512zM512 846.798c-255.183 0-462.798-207.614-462.798-462.798 0.020-255.183 207.644-462.798 462.817-462.798h0.039c255.164 0 462.739 207.614 462.739 462.798 0.010 255.183-207.605 462.798-462.798 462.798zM512.020 90.675c-93.022 0-168.715 71.314-168.715 158.963 0 13.59 11.011 24.601 24.601 24.601s24.601-11.011 24.601-24.601c0-60.519 53.611-109.761 119.513-109.761s119.493 49.242 119.493 109.761c0 60.519-53.601 109.761-119.493 109.761-93.022 0-168.715 71.314-168.715 158.963s75.693 158.963 168.715 158.963c49.95 0 97.027-20.665 129.166-56.701 9.043-10.146 8.148-25.693-1.988-34.737-10.136-9.053-25.693-8.148-34.737 1.988-22.8 25.575-56.494 40.248-92.441 40.248-65.892 0-119.513-49.232-119.513-109.761 0-60.519 53.611-109.761 119.513-109.761 93.022 0 168.695-71.314 168.695-158.963 0.010-87.649-75.673-158.963-168.695-158.963zM507.513 17.167c-13.59 0-24.601 11.011-24.601 24.601v684.464c0 13.59 11.011 24.601 24.601 24.601s24.601-11.011 24.601-24.601v-684.464c0-13.59-11.011-24.601-24.601-24.601z" />
<glyph unicode="&#xe00f;" glyph-name="diamond44" data-tags="diamond44" horiz-adv-x="1144" d="M1119.005 535.397h-1094.339c-9.6 0-18.322 5.565-22.367 14.267s-2.674 18.964 3.512 26.294l262.45 311.27c4.687 5.565 11.583 8.771 18.855 8.771h569.448c7.272 0 14.178-3.207 18.855-8.771l262.44-311.27c6.186-7.341 7.558-17.592 3.503-26.294-4.035-8.702-12.767-14.267-22.358-14.267zM77.729 584.73h988.214l-220.843 261.937h-546.518l-220.853-261.937zM571.836-128l-566.034 672.169 37.73 31.78 528.304-627.365 528.304 627.365 37.73-31.78zM571.836-114.374c-10.468 0-19.782 6.601-23.255 16.467l-229.101 649.762c-2.713 7.706-1.45 16.25 3.394 22.831l229.101 311.27c4.647 6.315 12.017 10.044 19.861 10.044s15.214-3.73 19.871-10.044l229.101-311.27c4.835-6.581 6.107-15.125 3.394-22.831l-229.101-649.762c-3.483-9.867-12.807-16.467-23.265-16.467zM370.341 555.949l201.495-571.481 201.495 571.481-201.495 273.767-201.495-273.767z" />
<glyph unicode="&#xe010;" glyph-name="downarrow19" data-tags="down arrow19" d="M512.028-128c-282.312 0-512.009 229.688-512.028 512.009 0 282.312 229.678 511.991 511.991 511.991s512-229.678 512-511.991-229.659-512.009-511.962-512.009zM511.991 848.505c-256.114 0-464.495-208.381-464.495-464.495 0.019-256.133 208.4-464.505 464.514-464.505h0.019c256.114 0 464.476 208.381 464.476 464.505 0 256.114-208.381 464.495-464.514 464.495zM512.009 149.173l-175.904 151.577c-9.936 8.559-11.047 23.548-2.489 33.484 8.568 9.936 23.558 11.038 33.484 2.489l144.908-124.865 144.889 124.865c9.927 8.549 24.935 7.447 33.484-2.489 8.559-9.936 7.447-24.926-2.489-33.484l-175.885-151.577zM512.009 156.773c-13.118 0-23.748 10.629-23.748 23.748v406.959c0 13.118 10.629 23.748 23.748 23.748s23.748-10.629 23.748-23.748v-406.959c0-13.118-10.629-23.748-23.748-23.748z" />
<glyph unicode="&#xe011;" glyph-name="equalizer43" data-tags="equalizer43" horiz-adv-x="1268" d="M607.227 357.321h-576.477c-16.986 0-30.75 13.764-30.75 30.75s13.764 30.75 30.75 30.75h576.477c16.986 0 30.75-13.764 30.75-30.75s-13.764-30.75-30.75-30.75zM1237.971 357.321h-305.84c-16.986 0-30.75 13.764-30.75 30.75s13.764 30.75 30.75 30.75h305.84c16.986 0 30.75-13.764 30.75-30.75s-13.764-30.75-30.75-30.75zM444.768-32.085h-414.018c-16.986 0-30.75 13.764-30.75 30.75s13.764 30.75 30.75 30.75h414.018c16.986 0 30.75-13.764 30.75-30.75s-13.764-30.75-30.75-30.75zM1237.971-32.085h-468.31c-16.986 0-30.75 13.764-30.75 30.75s13.764 30.75 30.75 30.75h468.31c16.986 0 30.75-13.764 30.75-30.75s-13.764-30.75-30.75-30.75zM268.189 738.585h-237.439c-16.986 0-30.75 13.764-30.75 30.75s13.764 30.75 30.75 30.75h237.439c16.986 0 30.75-13.764 30.75-30.75s-13.764-30.75-30.75-30.75zM1237.971 738.585h-644.865c-16.986 0-30.75 13.764-30.75 30.75s13.764 30.75 30.75 30.75h644.877c16.986 0 30.75-13.764 30.75-30.75-0.012-16.986-13.776-30.75-30.762-30.75zM364.105 642.694c-69.852 0-126.665 56.814-126.665 126.665 0 69.827 56.814 126.641 126.665 126.641 69.827 0 126.641-56.814 126.641-126.641-0.012-69.852-56.826-126.665-126.641-126.665zM364.105 834.5c-35.928 0-65.165-29.225-65.165-65.141 0-35.928 29.237-65.165 65.165-65.165 35.916 0 65.141 29.237 65.141 65.165-0.012 35.916-29.237 65.141-65.141 65.141zM534.251-128c-69.852 0-126.665 56.814-126.665 126.665 0 69.839 56.814 126.653 126.665 126.653 69.839 0 126.653-56.814 126.653-126.653-0.012-69.852-56.826-126.665-126.653-126.665zM534.251 63.819c-35.928 0-65.165-29.225-65.165-65.153s29.237-65.165 65.165-65.165c35.928 0 65.153 29.237 65.153 65.165s-29.237 65.153-65.153 65.153zM703.13 261.443c-69.839 0-126.653 56.814-126.653 126.653 0 69.827 56.814 126.641 126.653 126.641s126.653-56.814 126.653-126.641c0-69.839-56.814-126.653-126.653-126.653zM703.13 453.237c-35.928 0-65.153-29.225-65.153-65.141 0-35.928 29.225-65.153 65.153-65.153s65.153 29.225 65.153 65.153c0 35.916-29.225 65.141-65.153 65.141z" />
<glyph unicode="&#xe012;" glyph-name="euro" data-tags="euro" horiz-adv-x="950" d="M646.535 304.064h-620.421c-14.425 0-26.114 11.689-26.114 26.114s11.689 26.114 26.114 26.114h620.421c14.425 0 26.114-11.689 26.114-26.114s-11.699-26.114-26.114-26.114zM719.509 430.52h-693.394c-14.425 0-26.114 11.689-26.114 26.114s11.689 26.114 26.114 26.114h693.394c14.425 0 26.114-11.689 26.114-26.114 0-14.415-11.689-26.114-26.114-26.114zM606.8-128c-289.011 0-524.133 229.69-524.133 512.026 0 282.305 235.122 511.974 524.133 511.974 120.867 0 238.934-41.229 332.423-116.083 11.26-9.015 13.078-25.446 4.063-36.706-9.004-11.25-25.456-13.078-36.706-4.063-84.265 67.469-190.738 104.624-299.78 104.624-260.202 0-471.904-206.25-471.904-459.756 0-253.537 211.703-459.798 471.904-459.798 109.147 0 215.609 37.166 299.77 104.655 11.25 9.036 27.691 7.218 36.706-4.042 9.025-11.25 7.218-27.681-4.042-36.706-93.384-74.885-211.452-116.125-332.434-116.125z" />
<glyph unicode="&#xe013;" glyph-name="float2" data-tags="float2" d="M167.009 15.462c-6.096 0-12.183 2.324-16.831 6.973-9.306 9.297-9.306 24.376 0 33.672l128.517 128.526c9.306 9.306 24.376 9.306 33.672 0 9.306-9.297 9.306-24.376 0-33.672l-128.526-128.526c-4.648-4.648-10.735-6.973-16.831-6.973zM728.008 576.47c-6.096 0-12.183 2.324-16.831 6.973-9.306 9.297-9.306 24.376 0 33.672l128.479 128.479c9.306 9.306 24.376 9.306 33.672 0 9.306-9.297 9.306-24.385 0-33.672l-128.479-128.469c-4.648-4.658-10.745-6.982-16.841-6.982zM856.486 15.453c-6.096 0-12.183 2.324-16.841 6.973l-127.631 127.64c-9.306 9.306-9.306 24.385 0 33.672 9.306 9.306 24.376 9.306 33.672 0l127.631-127.64c9.306-9.306 9.306-24.385 0-33.672-4.648-4.648-10.745-6.973-16.831-6.973zM296.297 575.632c-6.096 0-12.183 2.324-16.841 6.982l-129.298 129.307c-9.306 9.297-9.306 24.376 0 33.672 9.306 9.306 24.376 9.306 33.672 0l129.298-129.307c9.306-9.306 9.306-24.385 0-33.672-4.639-4.658-10.735-6.982-16.831-6.982zM511.724-128c-136.747 0-265.311 53.257-362.013 149.958-199.605 199.614-199.624 524.44-0.010 724.093 96.711 96.702 225.285 149.949 362.042 149.949 136.766 0 265.34-53.247 362.042-149.949 96.711-96.711 149.968-225.285 149.968-362.051-0.010-136.747-53.266-265.321-149.968-362.013-96.711-96.721-225.295-149.987-362.061-149.987zM511.743 848.373c-124.040 0-240.65-48.294-328.36-135.994-181.040-181.078-181.040-475.699 0.010-656.748 87.7-87.7 204.301-136.004 328.341-136.004 124.049 0 240.669 48.313 328.388 136.032 87.7 87.7 136.004 204.31 136.013 328.341 0 124.030-48.303 240.659-136.013 328.379-87.719 87.7-204.329 135.994-328.379 135.994zM512.552 53.507c-88.053 0-170.829 34.291-233.077 96.559-128.536 128.526-128.536 337.676 0 466.221 62.249 62.258 145.034 96.549 233.096 96.549s170.857-34.291 233.125-96.549c128.536-128.545 128.545-337.685 0.010-466.202-62.287-62.287-145.091-96.578-233.153-96.578zM512.562 665.209c-75.336 0-146.158-29.329-199.424-82.595-109.952-109.98-109.952-288.906 0.010-398.876 53.257-53.266 124.068-82.604 199.405-82.604s146.186 29.338 199.462 82.623c109.971 109.952 109.961 288.877 0 398.857-53.276 53.257-124.106 82.595-199.452 82.595z" />
<glyph unicode="&#xe014;" glyph-name="folder261" data-tags="folder261" horiz-adv-x="1210" d="M1181.964 635.166c-15.838 0-28.671 12.833-28.671 28.671v89.773c0 4.461-3.762 8.234-8.223 8.234h-706.1c-28.143 0-63.844 15.505-83.030 36.091l-21.354 22.868c-8.429 9.003-28.774 17.856-41.114 17.856h-227.909c-4.461 0-8.223-3.762-8.223-8.223v-166.599c0-15.838-12.833-28.671-28.671-28.671s-28.671 12.833-28.671 28.671v166.599c0 36.159 29.405 65.564 65.564 65.564h227.909c28.143 0 63.844-15.505 83.030-36.091l21.354-22.868c8.406-9.014 28.774-17.868 41.114-17.868h706.1c36.148 0 65.564-29.416 65.564-65.575v-89.773c0-15.826-12.833-28.659-28.671-28.659zM1145.082-128h-1079.518c-36.159 0-65.564 29.405-65.564 65.564v554.111c0 36.148 29.405 65.575 65.564 65.575h1079.518c36.148 0 65.564-29.416 65.564-65.575v-554.111c-0.011-36.159-29.416-65.564-65.564-65.564zM65.564 499.91c-4.461 0-8.223-3.773-8.223-8.234v-554.111c0-4.461 3.762-8.223 8.223-8.223h1079.518c4.461 0 8.223 3.762 8.223 8.223v554.111c0 4.461-3.762 8.234-8.223 8.234h-1079.518z" />
<glyph unicode="&#xe015;" glyph-name="glasses" data-tags="glasses" horiz-adv-x="1460" d="M315.976-128c-174.222 0-315.976 141.741-315.976 315.976s141.753 316.001 315.976 316.001c174.235 0 315.976-141.753 315.976-316.001 0.013-174.235-141.741-315.976-315.976-315.976zM315.976 439.973c-138.95 0-251.985-113.047-251.985-251.997 0-138.938 113.047-251.985 251.985-251.985 138.95 0 251.985 113.047 251.985 251.985 0.013 138.95-113.034 251.997-251.985 251.997zM1144.687-128c-174.235 0-315.989 141.741-315.989 315.976s141.753 316.001 315.989 316.001c174.235 0 315.976-141.753 315.976-316.001 0.013-174.235-141.741-315.976-315.976-315.976zM1144.687 439.973c-138.95 0-251.997-113.047-251.997-252.010 0-138.938 113.047-251.985 251.997-251.985s251.985 113.047 251.985 251.985c0.013 138.963-113.034 252.010-251.985 252.010zM60.651 285.524c-3.417 0-6.898 0.563-10.315 1.728-16.727 5.695-25.66 23.869-19.965 40.596l159.799 469.145c9.304 36.974 36.091 66.768 75.612 84.033 36.949 16.139 81.282 19.351 124.821 9.036 17.188-4.070 27.836-21.309 23.754-38.51-4.057-17.188-21.245-27.862-38.51-23.754-30.127 7.154-60.126 5.222-84.456-5.414-21.194-9.266-35.17-24.086-39.355-41.748l-0.845-2.931-160.247-470.489c-4.543-13.31-16.97-21.693-30.293-21.693zM1397.837 285.524c-13.323 0-25.75 8.383-30.293 21.693l-161.091 473.433c-4.185 17.662-18.161 32.482-39.355 41.748-24.329 10.597-54.329 12.568-84.456 5.414-17.265-4.057-34.44 6.578-38.51 23.754-4.070 17.201 6.565 34.44 23.754 38.51 43.54 10.315 87.873 7.116 124.821-9.036 39.508-17.278 66.308-47.072 75.612-84.033l159.799-469.145c5.695-16.727-3.251-34.888-19.978-40.596-3.404-1.177-6.885-1.741-10.303-1.741zM860.669 155.967c-4.889 0-9.855 1.126-14.5 3.494-0.358 0.179-48.454 23.766-118.87 23.766-69.251 0-111.166-22.883-111.575-23.114-15.358-8.562-34.85-3.161-43.514 12.146s-3.443 34.683 11.813 43.437c2.24 1.293 55.852 31.509 143.276 31.509 86.593 0 145.452-29.5 147.922-30.741 15.742-8.024 22-27.299 13.976-43.028-5.644-11.083-16.881-17.457-28.527-17.47z" />
<glyph unicode="&#xe016;" glyph-name="heart365" data-tags="heart365" horiz-adv-x="1142" d="M571.020-128v0c-6.606 0-12.926 2.652-17.56 7.345l-409.766 415.908c-92.611 92.611-143.694 202.901-143.694 310.44 0 173.638 115.358 290.307 287.063 290.307 147.598 0 206.096-65.566 283.957-157.083 77.861 91.507 136.339 157.083 283.947 157.083 171.725 0 287.102-116.669 287.102-290.307 0-107.539-51.063-217.838-143.783-310.568l-409.716-415.78c-4.634-4.703-10.954-7.345-17.55-7.345zM287.063 846.702c-144.434 0-237.765-94.603-237.765-241.008 0-94.366 45.946-192.282 129.388-275.714l392.334-398.22 392.285 398.092c83.531 83.55 129.467 181.466 129.467 275.842 0 146.405-93.351 241.008-237.804 241.008-127.574 0-173.943-54.524-250.769-144.857l-14.454-16.959c-4.683-5.482-11.526-8.627-18.723-8.627v0c-7.198 0-14.050 3.145-18.723 8.627l-14.356 16.85c-76.866 90.403-123.265 144.966-250.878 144.966z" />
<glyph unicode="&#xe017;" glyph-name="house181" data-tags="house181" horiz-adv-x="964" d="M833.185-128h-239.316c-12.966 0-23.472 10.506-23.472 23.472v257.080h-174.272v-257.089c0-12.966-10.506-23.472-23.472-23.472h-239.307c-12.966 0-23.472 10.506-23.472 23.472v498.321c0 6.121 2.394 11.999 6.666 16.383l350.872 359.735c4.422 4.535 10.478 7.088 16.806 7.088 0.009 0 0.019 0 0.028 0 6.347-0.009 12.402-2.572 16.824-7.135l348.966-359.735c4.244-4.375 6.619-10.243 6.619-16.336v-498.311c0-12.966-10.506-23.472-23.472-23.472zM617.341-81.057h192.373v465.32l-325.542 335.587-327.354-335.625v-465.292h192.364v257.089c0 12.966 10.506 23.472 23.472 23.472h221.215c12.966 0 23.472-10.506 23.472-23.472v-257.080zM23.472 372.555c-5.859 0-11.726 2.178-16.28 6.563-9.332 8.994-9.614 23.857-0.62 33.189l459.048 476.502c4.413 4.572 10.468 7.164 16.824 7.192 0.028 0 0.056 0 0.084 0 6.319 0 12.365-2.544 16.787-7.060l458.015-468.474c9.060-9.267 8.891-24.129-0.376-33.198-9.267-9.051-24.129-8.9-33.198 0.376l-441.106 451.18-442.271-459.076c-4.61-4.788-10.759-7.192-16.909-7.192zM206.522 562.572c-12.966 0-23.472 10.506-23.472 23.472v216.136c0 12.966 10.506 23.472 23.472 23.472s23.472-10.506 23.472-23.472v-216.126c0-12.975-10.506-23.481-23.472-23.481z" />
<glyph unicode="&#xe018;" glyph-name="key191" data-tags="key191" horiz-adv-x="946" d="M813.669 633.088c-72.468 0-131.434 58.966-131.469 131.443 0 72.486 58.975 131.46 131.469 131.469 72.486-0.009 131.443-58.983 131.443-131.452 0-72.486-58.966-131.46-131.443-131.46zM813.669 851.904c-48.18-0.009-87.373-39.193-87.373-87.355 0.018-48.162 39.211-87.355 87.373-87.355s87.346 39.184 87.346 87.355c0 48.162-39.184 87.346-87.346 87.355zM813.686 404.28v0c-72.477 0.009-131.452 58.983-131.487 131.452 0.035 72.486 59.001 131.452 131.46 131.469 72.486-0.018 131.452-58.992 131.469-131.452 0-72.495-58.975-131.469-131.443-131.469zM813.66 623.113c-48.145-0.018-87.346-39.211-87.364-87.373 0.018-48.153 39.219-87.346 87.39-87.355 48.162 0 87.346 39.193 87.346 87.364-0.018 48.153-39.211 87.346-87.373 87.364zM594.297 633.088h-0.044c-72.451 0-131.416 58.966-131.452 131.425 0 72.503 58.975 131.469 131.46 131.469 72.477 0 131.443-58.975 131.443-131.46 0.018-35.083-13.652-68.103-38.479-92.929s-57.828-38.505-92.929-38.505zM594.262 851.895c-48.171 0-87.364-39.193-87.364-87.364 0.018-48.153 39.211-87.338 87.364-87.338h0.035c23.327 0 45.252 9.084 61.753 25.585 16.492 16.501 25.567 38.426 25.558 61.744 0 48.18-39.184 87.373-87.346 87.373zM594.262 404.28v0c-72.495 0.009-131.46 58.992-131.46 131.469 0 72.468 58.975 131.434 131.452 131.452 72.477 0 131.443-58.966 131.478-131.452-0.035-72.486-59.001-131.46-131.469-131.469zM594.262 623.113c-48.171-0.018-87.364-39.202-87.364-87.355 0-48.171 39.193-87.364 87.364-87.373 48.153 0.009 87.355 39.202 87.373 87.373-0.018 48.153-39.211 87.355-87.373 87.355zM22.048-48.185c-5.644 0-11.28 2.152-15.593 6.456-8.616 8.616-8.616 22.577 0 31.176l484.162 484.144c8.616 8.616 22.569 8.616 31.176 0 8.616-8.616 8.616-22.577 0-31.176l-484.153-484.135c-4.313-4.304-9.948-6.465-15.593-6.465zM273.725-8.313c-5.644 0-11.28 2.152-15.593 6.456l-98.071 98.044c-8.616 8.608-8.616 22.569 0 31.176 8.599 8.616 22.569 8.616 31.176 0l98.071-98.044c8.616-8.608 8.616-22.569 0-31.176-4.295-4.304-9.939-6.456-15.584-6.456zM232.486-128c-5.644 0-11.28 2.152-15.584 6.456l-137.29 137.272c-8.616 8.608-8.616 22.569 0 31.176 8.608 8.616 22.569 8.616 31.176 0l137.281-137.272c8.616-8.608 8.616-22.569 0-31.176-4.295-4.304-9.939-6.456-15.584-6.456z" />
<glyph unicode="&#xe019;" glyph-name="link73" data-tags="link73" d="M183.54-128c-49.019 0-95.116 19.094-129.791 53.759-34.665 34.675-53.749 80.772-53.749 129.791 0 49.028 19.103 95.116 53.768 129.781l137.748 137.757c73.157 73.157 181.056 88.52 258.706 88.52 38.254 0 64.267-3.874 65.352-4.045 10.737-1.628 19.008-10.318 20.103-21.13 0.895-8.842 20.702-217.615-84.598-322.906l-137.767-137.767c-34.665-34.665-80.743-53.759-129.772-53.759zM450.222 364.007c-56.196 0-160.173-9.699-225.059-74.575l-137.738-137.757c-25.69-25.671-39.834-59.813-39.834-96.125s14.135-70.454 39.815-96.144c25.68-25.671 59.822-39.824 96.144-39.824 36.303 0 70.444 14.135 96.134 39.824l137.767 137.767c72.786 72.776 74.204 214.046 72.082 265.311-10.032 0.79-23.529 1.523-39.31 1.523zM573.835 356.44c0 0 0 0 0 0-38.273 0-64.305 3.874-65.4 4.045-10.737 1.628-19.008 10.327-20.103 21.13-0.895 8.842-20.683 217.596 84.617 322.897l137.738 137.729c34.665 34.665 80.753 53.759 129.781 53.759s95.125-19.094 129.791-53.759c34.675-34.656 53.759-80.743 53.759-129.772-0.010-49.028-19.103-95.125-53.778-129.791l-137.738-137.757c-73.148-73.129-181.037-88.481-258.667-88.481zM534.487 405.564c10.032-0.79 23.548-1.523 39.339-1.523 56.196 0 160.154 9.68 225.030 74.537l137.738 137.757c25.69 25.68 39.843 59.822 39.843 96.134s-14.135 70.444-39.824 96.125c-25.69 25.68-59.822 39.815-96.144 39.815s-70.463-14.135-96.144-39.824l-137.738-137.729c-72.786-72.786-74.204-214.046-72.101-265.292z" />
<glyph unicode="&#xe01a;" glyph-name="magnet1" data-tags="magnet1" horiz-adv-x="946" d="M472.759-128c-260.673 0-472.759 212.075-472.759 472.769v551.231h219.067v-551.231c0-139.897 113.806-253.713 253.702-253.713 139.907 0 253.723 113.816 253.723 253.713v551.231h219.036v-551.231c-0.021-260.694-212.086-472.769-472.769-472.769zM52.099 843.901v-499.131c0-231.956 188.703-420.67 420.66-420.67 231.946 0 420.649 188.714 420.649 420.67v499.131h-114.827v-499.131c0-168.624-137.188-305.812-305.822-305.812-168.624 0-305.802 137.188-305.802 305.812v499.131h-114.858zM193.017 648.039h-166.968c-14.39 0-26.050 11.66-26.050 26.050s11.66 26.050 26.050 26.050h166.968c14.39 0 26.050-11.66 26.050-26.050s-11.67-26.050-26.050-26.050zM919.458 648.039h-166.926c-14.39 0-26.050 11.66-26.050 26.050s11.66 26.050 26.050 26.050h166.936c14.39 0 26.050-11.66 26.050-26.050-0.010-14.39-11.67-26.050-26.060-26.050z" />
<glyph unicode="&#xe01b;" glyph-name="magnifyingglass17" data-tags="magnifying glass17" d="M682.729 213.467c-91.159 0-176.858 35.495-241.322 99.94-133.041 133.080-133.041 349.583 0 482.625 64.455 64.465 150.163 99.969 241.322 99.969s176.858-35.504 241.322-99.969c64.465-64.455 99.969-150.144 99.969-241.303s-35.504-176.858-99.969-241.322c-64.465-64.455-150.163-99.94-241.322-99.94zM682.729 847.163c-78.11 0-151.55-30.425-206.794-85.669-114.005-114.005-114.005-299.536 0-413.56 55.234-55.225 128.685-85.64 206.794-85.64 78.119 0 151.56 30.416 206.794 85.65s85.669 128.675 85.669 206.785c0 78.11-30.425 151.541-85.669 206.765-55.244 55.244-128.675 85.669-206.794 85.669zM408.569 256.131c-6.251 0-12.492 2.383-17.269 7.15-9.543 9.533-9.543 24.995-0.010 34.528l39.128 39.148c9.543 9.552 25.004 9.552 34.537 0.010 9.543-9.523 9.543-24.995 0.010-34.528l-39.128-39.148c-4.766-4.776-11.018-7.159-17.269-7.159zM126.429-128c-33.776 0-65.519 13.157-89.391 37.028-23.881 23.871-37.038 55.615-37.038 89.391s13.157 65.519 37.038 89.401l194.546 194.536c23.881 23.881 55.625 37.038 89.401 37.038 33.766 0 65.519-13.147 89.391-37.038 49.276-49.296 49.276-129.496 0.010-178.791l-194.585-194.546c-23.862-23.871-55.606-37.018-89.371-37.018zM320.985 270.557c-20.726 0-40.212-8.068-54.873-22.729l-194.546-194.546c-14.661-14.661-22.729-34.137-22.729-54.863-0.010-20.726 8.068-40.202 22.729-54.853 14.651-14.661 34.137-22.729 54.863-22.729 20.717 0 40.193 8.068 54.834 22.719l194.585 194.546c30.24 30.259 30.24 79.477-0.010 109.726-14.641 14.661-34.127 22.729-54.853 22.729zM682.729 340.022c-57.354 0-111.27 22.338-151.834 62.882-83.696 83.726-83.696 219.932 0 303.638 40.554 40.554 94.48 62.892 151.834 62.892s111.27-22.338 151.814-62.892c83.706-83.696 83.706-219.912 0-303.628-40.544-40.564-94.45-62.892-151.814-62.892zM682.729 720.588c-44.305 0-85.972-17.259-117.306-48.583-64.66-64.67-64.66-169.893 0-234.573 31.334-31.324 72.991-48.583 117.306-48.583 44.305 0 85.963 17.259 117.286 48.583 64.66 64.679 64.67 169.903 0 234.573-31.324 31.324-72.972 48.583-117.286 48.583z" />
<glyph unicode="&#xe01c;" glyph-name="paperplane1" data-tags="paper plane1" horiz-adv-x="1016" d="M638.215-128c-10.084 0-19.332 5.827-23.652 15.022l-194.498 413.36-404.834 186.077c-9.603 4.414-15.597 14.164-15.21 24.719s7.092 19.844 16.988 23.537l963.212 359.633c9.509 3.567 20.284 1.276 27.543-5.9 7.239-7.176 9.666-17.898 6.203-27.481l-351.139-971.696c-3.599-9.938-12.825-16.748-23.38-17.229-0.408-0.031-0.816-0.042-1.234-0.042zM94.221 507.725l356.359-163.796c5.607-2.573 10.116-7.051 12.741-12.626l171.735-364.978 310.498 859.242-851.334-317.842zM439.658 294.011c-6.695 0-13.379 2.552-18.495 7.657-10.22 10.22-10.22 26.78 0 36.979l549.706 549.685c10.22 10.22 26.769 10.22 36.979 0s10.22-26.78 0-36.979l-549.696-549.685c-5.115-5.105-11.8-7.657-18.495-7.657z" />
<glyph unicode="&#xe01d;" glyph-name="equalizer" data-tags="equalizer" d="M682 490.667h172v-470h-172v470zM170 20.667v342h172v-342h-172zM426 20.667v684h172v-684h-172z" />
<glyph unicode="&#xe01e;" glyph-name="pen82" data-tags="pen82" horiz-adv-x="1020" d="M769.61 688.476h-518.453c-21.612 0-39.191 17.579-39.191 39.191v129.132c0.009 21.612 17.579 39.201 39.191 39.201h518.453c21.612 0 39.191-17.589 39.191-39.201v-129.132c0-21.612-17.579-39.191-39.191-39.191zM258.432 734.933h503.912v114.61h-503.912v-114.61zM512.042 15.423l-22.745 49.245c-0.762 1.654-78.522 167.859-247.57 336.917l-13.054 13.045 9.775 15.665c107.437 172.356 107.697 275.333 107.688 276.355l46.448 0.836c0.102-4.516 0.985-109.834-105.114-286.102 117.249-120.222 188.923-235.203 222.103-294.957 30.262 57.207 97.040 165.48 223.143 294.362-104.445 158.159-111.544 284.411-111.795 289.884l46.401 2.23c0.065-1.264 7.768-127.85 114.405-281.651l11.048-15.944-13.723-13.714c-186.814-186.832-246.465-334.269-247.041-335.737l-19.967-50.434zM487.169 397.579h46.457v-329.623h-46.457zM510.379 369.835c-55.256 0-100.208 44.952-100.208 100.208 0 55.247 44.952 100.199 100.208 100.199s100.217-44.952 100.217-100.199c0-55.256-44.961-100.208-100.217-100.208zM510.379 523.785c-29.64 0-53.751-24.111-53.751-53.742 0-29.64 24.111-53.751 53.751-53.751s53.76 24.111 53.76 53.751c0 29.64-24.121 53.742-53.76 53.742zM822.682-41.432h-626.717c-12.831 0-23.229 10.397-23.229 23.229s10.397 23.229 23.229 23.229h626.717c12.831 0 23.229-10.397 23.229-23.229 0-12.822-10.397-23.229-23.229-23.229zM175.283-128h-128.11c-26.016 0-47.173 21.166-47.173 47.182v131.242c0 26.016 21.157 47.182 47.173 47.182h128.11c26.016 0 47.173-21.166 47.173-47.182v-131.242c0-26.016-21.157-47.182-47.173-47.182zM47.173 51.148c-0.344 0-0.715-0.381-0.715-0.725v-131.242c0-0.344 0.372-0.725 0.715-0.725h128.11c0.344 0 0.715 0.372 0.715 0.725v131.242c0 0.353-0.372 0.725-0.715 0.725h-128.11zM973.594-124.859h-128.11c-26.007 0-47.163 21.166-47.163 47.182v131.232c0 26.016 21.157 47.173 47.163 47.173h128.11c26.016 0 47.173-21.157 47.173-47.173v-131.232c0-26.016-21.157-47.182-47.173-47.182zM845.484 54.27c-0.334 0-0.706-0.372-0.706-0.715v-131.232c0-0.353 0.362-0.725 0.706-0.725h128.11c0.344 0 0.715 0.381 0.715 0.725v131.232c0 0.334-0.381 0.715-0.715 0.715h-128.11z" />
<glyph unicode="&#xe01f;" glyph-name="present34" data-tags="present34" horiz-adv-x="948" d="M893.249 419.695h-838.691c-30.083 0-54.557 24.475-54.557 54.557v159.89c0 30.083 24.475 54.557 54.557 54.557h838.691c30.083 0 54.557-24.475 54.557-54.557v-159.89c0-30.083-24.483-54.557-54.557-54.557zM54.557 645.428c-6.119 0-11.285-5.167-11.285-11.285v-159.89c0-6.119 5.167-11.285 11.285-11.285h838.691c6.119 0 11.285 5.167 11.285 11.285v159.89c0 6.119-5.167 11.285-11.285 11.285h-838.691zM776.31-128h-604.84c-57.31 0-103.94 46.63-103.94 103.94v465.392c0 11.952 9.684 21.636 21.636 21.636s21.636-9.684 21.636-21.636v-465.392c0-33.449 27.21-60.668 60.668-60.668h604.84c33.449 0 60.668 27.218 60.668 60.668v465.392c0 11.952 9.684 21.636 21.636 21.636s21.636-9.684 21.636-21.636v-465.392c0-57.318-46.63-103.94-103.94-103.94zM473.899-128c-11.952 0-21.636 9.684-21.636 21.636v547.695c0 11.952 9.684 21.636 21.636 21.636s21.636-9.684 21.636-21.636v-547.695c0-11.952-9.684-21.636-21.636-21.636zM218.1 645.662c-64.597 34.973-88.699 115.969-53.727 180.566 34.964 64.579 115.961 88.699 180.549 53.735 97.968-53.034 150.795-200.878 152.993-207.144l-40.823-14.349c-0.485 1.376-49.573 138.393-132.768 183.439-43.592 23.592-98.288 7.322-121.906-36.288-23.601-43.61-7.339-98.297 36.279-121.915l-20.598-38.045zM729.68 645.662l-20.606 38.053c21.125 11.441 36.548 30.429 43.402 53.45 6.854 23.029 4.327 47.34-7.114 68.456-23.601 43.61-78.288 59.889-121.906 36.288-83.195-45.046-132.274-182.063-132.759-183.439l-40.823 14.349c2.198 6.266 55.008 154.109 152.984 207.144 64.614 34.947 145.602 10.844 180.549-53.744 16.945-31.286 20.693-67.297 10.541-101.404-10.152-34.098-32.965-62.217-64.268-79.153zM858.614 145.835h-769.439c-11.952 0-21.636 9.684-21.636 21.636s9.684 21.636 21.636 21.636h769.439c11.952 0 21.636-9.684 21.636-21.636s-9.684-21.636-21.636-21.636z" />
<glyph unicode="&#xe020;" glyph-name="questionmark2" data-tags="question mark2" d="M512.037-128v23.4l-0.037-23.4c-282.32 0-512 229.69-512 512.009 0 282.31 229.68 511.991 512 511.991s512-229.68 512-511.991c0-282.32-229.671-512.009-511.963-512.009zM512 849.201c-256.515 0-465.201-208.686-465.201-465.192 0-256.515 208.686-465.21 465.201-465.21h0.037c256.487 0 465.164 208.696 465.164 465.21 0 256.505-208.686 465.192-465.201 465.192zM512 276.231c-12.926 0-23.4 10.474-23.4 23.4v99.045c0 12.926 10.474 23.4 23.4 23.4 51.788 0 93.916 42.128 93.916 93.916 0 51.797-42.128 93.944-93.916 93.944s-93.926-42.147-93.926-93.944c0-12.926-10.474-23.4-23.4-23.4s-23.4 10.474-23.4 23.4c0 77.602 63.132 140.743 140.725 140.743s140.715-63.141 140.715-140.743c0-69.618-50.824-127.593-117.316-138.768v-77.593c0-12.926-10.474-23.4-23.4-23.4zM467.99 170.26c0 25.713 16.762 42.475 44 42.475 14.116 0 30.878-16.762 30.878-42.475 0-15.642-16.762-32.404-30.878-32.404-27.238 0-44 16.762-44 32.404z" />
<glyph unicode="&#xe021;" glyph-name="games" data-tags="games" d="M704 490.667h234v-256h-234l-128 128zM384 170.667l128 128 128-128v-234h-256v234zM320 490.667l128-128-128-128h-234v256h234zM640 554.667l-128-128-128 128v234h256v-234z" />
<glyph unicode="&#xe022;" glyph-name="refresh4" data-tags="refresh4" horiz-adv-x="912" d="M888.024 339.959c-12.943 0-23.431 10.488-23.431 23.431 0 223.609-181.92 405.529-405.538 405.529-87.801 0-171.357-27.583-241.623-79.788-10.375-7.732-25.062-5.558-32.776 4.836-7.714 10.385-5.549 25.071 4.836 32.785 78.41 58.241 171.62 89.029 269.562 89.029 249.449 0 452.4-202.933 452.4-452.391 0-12.934-10.488-23.431-23.431-23.431zM363.174 602.088c-2.727 0-5.483 0.478-8.192 1.49l-193.204 72.093 42.804 201.743c2.681 12.662 15.118 20.751 27.78 18.061 12.662-2.681 20.741-15.118 18.051-27.78l-34.416-162.238 155.368-57.978c12.119-4.518 18.286-18.014 13.759-30.142-3.515-9.429-12.456-15.249-21.95-15.249zM452.41-47.781c-249.458 0-452.41 202.942-452.41 452.391 0 12.943 10.488 23.431 23.431 23.431s23.431-10.488 23.431-23.431c0-223.599 181.929-405.529 405.547-405.529 87.801 0 171.348 27.583 241.613 79.779 10.385 7.714 25.062 5.558 32.776-4.846 7.714-10.385 5.549-25.062-4.836-32.776-78.401-58.231-171.62-89.020-269.553-89.020zM683.985-128c-1.612 0-3.243 0.178-4.892 0.525-12.662 2.681-20.741 15.118-18.051 27.78l34.425 162.247-155.377 57.978c-12.119 4.518-18.286 18.014-13.759 30.142 4.518 12.128 17.995 18.333 30.142 13.759l193.214-72.084-42.804-201.743c-2.334-11.050-12.062-18.604-22.897-18.604z" />
<glyph unicode="&#xe023;" glyph-name="screen85" data-tags="screen85" horiz-adv-x="926" d="M875.454 239.487h-825.011c-27.81 0-50.444 22.623-50.444 50.454v555.615c0 27.81 22.633 50.444 50.444 50.444h825.011c27.821 0 50.444-22.633 50.444-50.444v-555.615c0-27.831-22.633-50.454-50.444-50.454zM51.769 291.256h822.36v552.975h-822.36v-552.975zM609.973 124.829h-294.027c-14.299 0-25.884 11.586-25.884 25.884s11.586 25.884 25.884 25.884h294.027c14.299 0 25.884-11.586 25.884-25.884s-11.586-25.884-25.884-25.884zM457.296-128c-14.299 0-25.884 11.586-25.884 25.884v150.461c0 14.299 11.586 25.884 25.884 25.884s25.884-11.586 25.884-25.884v-150.461c0-14.299-11.586-25.884-25.884-25.884zM900.013-128h-874.129c-14.299 0-25.884 11.586-25.884 25.884s11.586 25.884 25.884 25.884h874.129c14.299 0 25.884-11.586 25.884-25.884s-11.586-25.884-25.884-25.884z" />
<glyph unicode="&#xe024;" glyph-name="share16" data-tags="share16" horiz-adv-x="1110" d="M173.103 549.762c-95.448 0-173.103 77.645-173.103 173.092 0 95.469 77.655 173.124 173.103 173.124 95.469 0 173.124-77.666 173.124-173.124 0-95.448-77.655-173.092-173.124-173.092zM173.103 842.548c-65.986 0-119.673-53.687-119.673-119.694 0-65.986 53.687-119.662 119.673-119.662 66.008 0 119.694 53.687 119.694 119.662 0 66.008-53.687 119.694-119.694 119.694zM936.139 549.762c-95.458 0-173.103 77.655-173.103 173.092-0.011 95.48 77.645 173.146 173.103 173.146 95.469 0 173.124-77.666 173.124-173.146 0-95.448-77.666-173.092-173.124-173.092zM936.139 842.57c-65.986 0-119.673-53.697-119.673-119.716 0-65.986 53.687-119.662 119.673-119.662 66.008 0 119.694 53.687 119.694 119.662 0 66.018-53.697 119.716-119.694 119.716zM554.637-128c-95.469 0-173.135 77.655-173.135 173.103 0 95.458 77.677 173.103 173.135 173.103 95.448 0 173.092-77.655 173.092-173.103 0.011-95.458-77.645-173.103-173.092-173.103zM554.637 164.776c-66.008 0-119.705-53.687-119.705-119.673s53.697-119.673 119.705-119.673c65.986 0 119.662 53.697 119.662 119.673s-53.676 119.673-119.662 119.673zM626.405 145.958c-4.445 0-8.944 1.111-13.090 3.43-12.855 7.245-17.408 23.531-10.173 36.386l237.903 422.633c7.245 12.866 23.531 17.397 36.386 10.173 12.855-7.245 17.408-23.531 10.173-36.386l-237.893-422.633c-4.905-8.709-13.977-13.603-23.306-13.603zM482.816 145.99c-9.329 0-18.401 4.894-23.306 13.603l-237.86 422.579c-7.234 12.855-2.682 29.152 10.173 36.386 12.845 7.202 29.152 2.693 36.386-10.173l237.86-422.569c7.234-12.855 2.682-29.152-10.173-36.386-4.135-2.33-8.634-3.441-13.080-3.441z" />
<glyph unicode="&#xe025;" glyph-name="speechbubble21" data-tags="speech bubble21" horiz-adv-x="826" d="M386.358-128v198.375c-214.964 13.982-386.358 194.574-386.358 412.321 0 227.893 185.402 413.304 413.295 413.304 227.902 0 413.304-185.411 413.304-413.304 0-116.413-49.477-227.998-135.776-306.239l-304.466-304.457zM413.295 852.114c-203.694 0-369.409-165.724-369.409-369.418 0-201.105 163.6-366.767 364.687-369.277l21.671-0.272v-135.196l230.737 230.693c77.372 69.955 121.732 169.849 121.732 274.061 0 203.685-165.724 369.409-369.418 369.409zM413.286 282.162v0c-5.881 0-11.516 2.361-15.632 6.539l-130.869 132.835c-32.16 32.169-49.943 70.929-49.943 109.040 0 62.872 43.483 106.784 105.749 106.784 45.94 0 69.060-18.669 90.696-42.772 21.636 24.102 44.764 42.772 90.687 42.772 62.283 0 105.775-43.913 105.775-106.784 0-38.12-17.774-76.88-50.048-109.145l-130.781-132.721c-4.134-4.187-9.76-6.548-15.632-6.548zM322.591 593.474c-38.164 0-61.862-24.102-61.862-62.898 0-26.384 13.21-54.129 37.198-78.118l115.36-117.089 115.272 116.975c24.094 24.094 37.303 51.839 37.303 78.232 0 38.796-23.716 62.898-61.889 62.898-34.231 0-45.256-12.955-69.384-41.332l-4.626-5.424c-4.169-4.88-10.261-7.68-16.668-7.68v0c-6.407 0-12.508 2.8-16.668 7.68l-4.617 5.416c-24.146 28.386-35.162 41.341-69.419 41.341z" />
<glyph unicode="&#xe026;" glyph-name="star206" data-tags="star206" horiz-adv-x="1066" d="M998.891 558.75h-306.945l-93.647 288.064c-8.419 28.989-35.158 49.186-65.228 49.186-30.276 0-57.163-20.472-65.1-48.764l-93.392-288.486h-306.905c-37.319 0-67.674-31.219-67.674-69.58 0-22.299 10.855-43.233 29.343-56.19 6.533-4.538 145.879-106.231 247.257-180.3-38.567-118.373-91.575-280.903-94.070-287.995l-0.55-1.513c-2.574-7.81-3.89-15.482-3.89-22.84 0-37.673 30.541-68.322 68.106-68.322 13.782 0 27.211 4.195 39.392 12.574l247.473 180.153c56.839-41.396 242.571-176.666 248.023-180.536 11.572-7.977 24.991-12.191 38.822-12.191 37.555 0 68.116 30.649 68.116 68.322 0 7.417-1.316 15.148-4.165 23.665-2.682 7.564-55.748 170.221-94.335 288.693 101.3 74.010 240.567 175.664 247.532 180.487 18.203 12.771 29.087 33.793 29.087 56.23 0 38.213-30.178 69.344-67.252 69.344zM1006.259 478.021c-6.65-4.48-221.706-161.586-264.763-193.041l-15.924-11.631 6.11-18.763c35.63-109.404 94.757-290.814 100.828-308.556h-0.010c0.943-2.8 1.13-4.647 1.13-5.707 0-7.535-6.287-13.9-13.714-13.9-2.8 0-5.452 0.864-7.594 2.338-4.951 3.517-174.357 126.9-263.23 191.627l-16.022 11.67-278.879-203.051c-2.525-1.729-5.197-2.593-7.986-2.593-7.544 0-13.684 6.238-13.684 13.9 0 1.061 0.216 2.947 1.14 5.816v0.010c6.022 17.614 57.556 175.654 100.789 308.438l6.12 18.763-15.934 11.641c-43.047 31.455-258.102 188.542-264.301 192.737-3.703 2.593-5.904 6.876-5.904 11.464 0 8.075 6.179 15.158 13.252 15.158h346.474l105.897 327.151c1.405 5.030 5.973 10.089 13.006 10.089 7.024 0 11.602-5.059 12.996-10.069l106.339-327.191h346.474c6.965 0 12.839-6.847 12.839-14.942 0.010-4.705-2.191-9.067-5.452-11.356z" />
<glyph unicode="&#xe027;" glyph-name="tag4" data-tags="tag4" d="M598.632-128c-7.099 0-14.186 2.706-19.61 8.119l-570.903 570.892c-5.191 5.202-8.119 12.245-8.119 19.599l0.011 397.661c0 15.318 12.412 27.729 27.729 27.729h397.639c7.354 0 14.408-2.928 19.61-8.13l570.903-570.892c5.202-5.202 8.119-12.245 8.119-19.61 0-7.354-2.928-14.408-8.119-19.61l-397.661-397.639c-5.413-5.413-12.511-8.119-19.599-8.119zM55.459 482.090l543.173-543.162 358.44 358.429-543.184 543.184h-358.418l-0.011-358.452zM244.185 541.719c-29.393 0-57.045 11.447-77.842 32.244-42.914 42.925-42.914 112.759-0.011 155.684 20.808 20.797 48.449 32.244 77.853 32.244s57.045-11.447 77.842-32.233c42.925-42.936 42.925-112.77 0-155.695-20.797-20.786-48.438-32.244-77.842-32.244zM244.185 706.442c-14.597 0-28.306-5.69-38.633-16.005-21.285-21.296-21.285-55.947 0.011-77.254 10.315-10.326 24.036-15.994 38.621-15.994s28.317 5.679 38.633 15.994c21.296 21.307 21.296 55.958 0 77.265-10.326 10.304-24.036 15.994-38.633 15.994z" />
<glyph unicode="&#xe028;" glyph-name="target58" data-tags="target58" d="M523.974 20.576c-193.782 0-351.433 157.651-351.433 351.433s157.651 351.433 351.433 351.433c193.782 0 351.441-157.651 351.441-351.433s-157.651-351.433-351.441-351.433zM523.974 681.777c-170.8 0-309.768-138.96-309.768-309.768s138.96-309.768 309.768-309.768c170.808 0 309.777 138.96 309.777 309.768s-138.968 309.768-309.777 309.768zM523.974 198.159c-95.862 0-173.85 77.988-173.85 173.85 0 95.87 77.988 173.858 173.85 173.858 95.87 0 173.867-77.988 173.867-173.858 0.008-95.862-77.988-173.85-173.867-173.85zM523.974 504.202c-72.888 0-132.185-59.297-132.185-132.194 0-72.888 59.297-132.185 132.185-132.185 72.896 0 132.202 59.297 132.202 132.185 0.008 72.896-59.305 132.194-132.202 132.194zM523.974 681.777c-11.508 0-20.832 9.325-20.832 20.832v172.558c0 11.499 9.325 20.832 20.832 20.832s20.832-9.333 20.832-20.832v-172.558c0-11.508-9.325-20.832-20.832-20.832zM523.974-128c-11.508 0-20.832 9.325-20.832 20.832v148.576c0 11.508 9.325 20.832 20.832 20.832s20.832-9.325 20.832-20.832v-148.576c0-11.508-9.325-20.832-20.832-20.832zM193.382 351.177h-172.55c-11.508 0-20.832 9.325-20.832 20.832s9.325 20.832 20.832 20.832h172.55c11.508 0 20.832-9.325 20.832-20.832s-9.333-20.832-20.832-20.832zM1003.151 351.177h-148.568c-11.508 0-20.832 9.325-20.832 20.832s9.325 20.832 20.832 20.832h148.568c11.508 0 20.832-9.325 20.832-20.832s-9.325-20.832-20.832-20.832z" />
<glyph unicode="&#xe029;" glyph-name="mic" data-tags="mic" d="M738 404.667h72c0-146-116-266-256-286v-140h-84v140c-140 20-256 140-256 286h72c0-128 108-216 226-216s226 88 226 216zM512 276.667c-70 0-128 58-128 128v256c0 70 58 128 128 128s128-58 128-128v-256c0-70-58-128-128-128z" />
<glyph unicode="&#xe02a;" glyph-name="mic_none" data-tags="mic_none" d="M738 404.667h72c0-146-116-266-256-286v-140h-84v140c-140 20-256 140-256 286h72c0-128 108-216 226-216s226 88 226 216zM460 664.667v-264c0-28 24-50 52-50s50 22 50 50l2 264c0 28-24 52-52 52s-52-24-52-52zM512 276.667c-70 0-128 58-128 128v256c0 70 58 128 128 128s128-58 128-128v-256c0-70-58-128-128-128z" />
<glyph unicode="&#xe02b;" glyph-name="umbrella1" data-tags="umbrella" horiz-adv-x="1050" d="M1027.468 347.507c-12.804 0-23.179 10.375-23.179 23.179 0 264.099-214.858 478.956-478.966 478.956-264.099 0-478.966-214.858-478.966-478.956 0-12.804-10.375-23.179-23.179-23.179s-23.179 10.375-23.179 23.179c0 289.66 235.654 525.314 525.323 525.314s525.323-235.654 525.323-525.314c0-12.804-10.375-23.179-23.179-23.179zM1026.475 333.109c-12.804 0-23.179 10.375-23.179 23.179 0 57.289-45.857 103.887-102.228 103.887s-102.228-46.599-102.228-103.887c0-12.804-10.375-23.179-23.179-23.179s-23.179 10.375-23.179 23.179v5.155c0 57.307-45.857 103.924-102.218 103.924-56.38 0-102.237-46.617-102.237-103.924v-5.155c0-12.804-10.375-23.179-23.179-23.179s-23.179 10.375-23.179 23.179c0 57.289-45.866 103.887-102.237 103.887s-102.228-46.599-102.228-103.887c0-12.804-10.375-23.179-23.179-23.179s-23.179 10.375-23.179 23.179c0 57.289-45.866 103.887-102.237 103.887-56.399 0-102.255-46.599-102.255-103.887 0-12.804-10.375-23.179-23.179-23.179s-23.179 10.375-23.179 23.179c0 82.841 66.653 150.245 148.585 150.245 52.662 0 99.020-27.842 125.416-69.731 26.396 41.898 72.744 69.731 125.406 69.731 51.596 0 97.147-26.73 123.793-67.209 26.090 43.372 73.282 72.401 127.047 72.401 53.756 0 100.939-29.029 127.029-72.401 26.646 40.479 72.188 67.209 123.784 67.209 81.932 0 148.585-67.404 148.585-150.245 0.009-12.804-10.366-23.179-23.169-23.179zM524.155-62.71c-12.804 0-23.179 10.375-23.179 23.179v410.217c0 12.804 10.375 23.179 23.179 23.179s23.179-10.375 23.179-23.179v-410.217c0-12.804-10.375-23.179-23.179-23.179zM592.745-128h-3.301c-48.777 0-88.459 39.682-88.459 88.469 0 12.804 10.375 23.179 23.179 23.179s23.179-10.375 23.179-23.179c0-23.225 18.886-42.111 42.102-42.111h3.301c23.216 0 42.111 18.886 42.111 42.111 0 12.804 10.375 23.179 23.179 23.179s23.179-10.375 23.179-23.179c0-48.787-39.691-88.469-88.469-88.469z" />
<glyph unicode="&#xe02c;" glyph-name="user8" data-tags="user8" horiz-adv-x="1006" d="M505.459 187.923c-156.844 0-284.457 127.604-284.457 284.457v139.154c0.009 156.853 127.613 284.466 284.457 284.466 156.862 0 284.475-127.613 284.475-284.466v-139.145c0-156.853-127.613-284.466-284.475-284.466zM505.459 850.92c-131.995 0-239.377-107.39-239.377-239.386v-139.145c0-131.995 107.381-239.377 239.377-239.377 132.004 0 239.395 107.39 239.395 239.377v139.145c0 131.995-107.39 239.386-239.395 239.386zM886.063-128h-765.311c-66.584 0-120.752 54.178-120.752 120.77v106.029c0 39.472 19.853 92.307 114.45 119.869l114.522 31.673c12.009 3.318 24.416-3.715 27.733-15.715s-3.724-24.416-15.715-27.733l-114.225-31.592c-81.686-23.802-81.686-63.473-81.686-76.501v-106.029c0-41.735 33.945-75.69 75.672-75.69h765.311c41.726 0 75.681 33.955 75.681 75.69v106.029c0 35.172-27.562 60.94-81.911 76.564l-108.923 30.429c-11.991 3.354-18.988 15.787-15.643 27.779 3.354 11.991 15.778 19.006 27.779 15.643l109.094-30.483c94.822-27.265 114.693-80.27 114.693-119.932v-106.029c-0.009-66.593-54.178-120.77-120.77-120.77z" />
<glyph unicode="&#xe02d;" glyph-name="videogame8" data-tags="video game8" horiz-adv-x="1090" d="M961.299-128h-108.013c-70.926 0-128.612 57.706-128.612 128.622v24.29c0 43.868-35.693 79.552-79.552 79.552h-200.352c-43.859 0-79.542-35.693-79.542-79.552v-24.29c0-70.926-57.696-128.622-128.622-128.622h-107.993c-70.916 0-128.612 57.706-128.612 128.632v465.595c0 70.926 57.696 128.612 128.612 128.612h832.686c70.926 0 128.612-57.696 128.612-128.612v-465.595c0.010-70.926-57.687-128.632-128.612-128.632zM444.769 153.543h200.342c70.926 0 128.622-57.706 128.622-128.622v-24.29c0-43.868 35.684-79.552 79.542-79.552h108.013c43.859 0 79.542 35.693 79.542 79.552v465.595c0 43.868-35.684 79.542-79.542 79.542h-832.677c-43.859 0-79.542-35.674-79.542-79.542v-465.595c0-43.868 35.684-79.552 79.542-79.552h107.983c43.868 0 79.552 35.693 79.552 79.552v24.28c0.010 70.926 57.706 128.632 128.622 128.632zM275.105 210.729c-68.050 0-123.411 55.37-123.411 123.411s55.361 123.411 123.411 123.411 123.411-55.37 123.411-123.411-55.361-123.411-123.411-123.411zM275.105 408.481c-40.993 0-74.341-33.348-74.341-74.341s33.348-74.341 74.341-74.341c40.993 0 74.341 33.348 74.341 74.341s-33.348 74.341-74.341 74.341zM822.863 355.387c-13.553 0-24.535 10.982-24.535 24.535v47.892c0 13.553 10.982 24.535 24.535 24.535s24.535-10.982 24.535-24.535v-47.892c0-13.553-10.982-24.535-24.535-24.535zM822.863 215.931c-13.553 0-24.535 10.982-24.535 24.535v47.892c0 13.553 10.982 24.535 24.535 24.535s24.535-10.982 24.535-24.535v-47.892c0-13.553-10.982-24.535-24.535-24.535zM779.966 309.605h-47.902c-13.553 0-24.535 10.982-24.535 24.535s10.982 24.535 24.535 24.535h47.902c13.553 0 24.535-10.982 24.535-24.535s-10.992-24.535-24.535-24.535zM913.671 309.605h-47.902c-13.553 0-24.535 10.982-24.535 24.535s10.982 24.535 24.535 24.535h47.902c13.553 0 24.535-10.982 24.535-24.535s-10.992-24.535-24.535-24.535zM544.95 545.769c-13.553 0-24.535 10.982-24.535 24.535v301.161c0 13.553 10.982 24.535 24.535 24.535s24.535-10.982 24.535-24.535v-301.161c0-13.543-10.982-24.535-24.535-24.535z" />
<glyph unicode="&#xe02e;" glyph-name="wifi103" data-tags="wifi103" horiz-adv-x="1290" d="M907.143 150.219c-8.794 0-17.527 3.793-23.552 11.099-59.764 72.558-147.934 114.173-241.885 114.173-90.902 0-177.206-39.42-236.775-108.173-11.050-12.746-30.284-14.099-43.006-3.086-12.733 11.026-14.112 30.284-3.086 43.006 71.168 82.121 174.267 129.236 282.866 129.236 112.234 0 217.565-49.702 288.952-136.384 10.709-13.002 8.855-32.224-4.147-42.92-5.671-4.684-12.55-6.952-19.368-6.952zM1089.374 363.918c-8.379 0-16.697 3.427-22.722 10.148-108.112 120.735-262.998 189.976-424.958 189.976-158.801 0-311.638-67.021-419.36-183.89-11.392-12.392-30.699-13.185-43.079-1.756-12.392 11.416-13.172 30.699-1.756 43.079 119.223 129.358 288.416 203.551 464.195 203.551 179.267 0 350.717-76.644 470.379-210.271 11.233-12.55 10.172-31.821-2.366-43.054-5.818-5.22-13.087-7.782-20.332-7.782zM1258.933 564.908c-8.221 0-16.392 3.281-22.405 9.806-152.886 165.424-369.707 260.302-594.858 260.302-225.2 0-434.374-90.256-589.004-254.155-11.575-12.258-30.846-12.819-43.103-1.256-12.246 11.55-12.807 30.846-1.244 43.103 166.253 176.243 391.198 273.292 633.351 273.292 242.117 0 475.245-102.026 639.633-279.915 11.441-12.367 10.672-31.663-1.708-43.079-5.854-5.428-13.27-8.099-20.661-8.099zM644.523-128c-61.593 0-111.698 50.116-111.698 111.722s50.104 111.71 111.698 111.71c61.606 0 111.71-50.104 111.71-111.71s-50.116-111.722-111.71-111.722zM644.523 34.448c-27.967 0-50.714-22.759-50.714-50.726 0-27.979 22.747-50.738 50.714-50.738s50.726 22.759 50.726 50.738c0 27.967-22.759 50.726-50.726 50.726z" />
<glyph unicode="&#xe02f;" glyph-name="accept7" data-tags="accept7" d="M918.982 896h-813.948c-57.917 0-105.034-47.101-105.034-105.018v-813.948c0-57.932 47.117-105.034 105.034-105.034h813.933c57.932 0 105.034 47.101 105.034 105.034v813.948c-0.016 57.917-47.117 105.018-105.018 105.018zM971.467-22.966c0-28.95-23.551-52.517-52.485-52.517h-813.948c-28.966 0-52.517 23.566-52.517 52.517v813.948c0 28.935 23.551 52.501 52.517 52.501h813.964c28.935 0 52.485-23.566 52.485-52.501v-813.948zM738.322 511.711l-254.965-254.965 0.394-0.394-55.713-55.728-0.409 0.409-0.331-0.331-55.713 55.713 0.331 0.331-112.527 112.496 55.713 55.728 112.527-112.511 254.981 254.965 55.713-55.713z" />
<glyph unicode="&#xe030;" glyph-name="add116" data-tags="add116" d="M918.966-128h-813.933c-57.917 0-105.034 47.117-105.034 105.034v813.933c0 57.917 47.117 105.034 105.034 105.034h813.933c57.917 0 105.018-47.117 105.018-105.034v-813.933c0-57.917-47.101-105.034-105.018-105.034zM105.034 843.483c-28.966 0-52.517-23.551-52.517-52.517v-813.933c0-28.966 23.551-52.517 52.517-52.517h813.933c28.966 0 52.517 23.551 52.517 52.517v813.933c0 28.966-23.551 52.517-52.517 52.517h-813.933zM273.51 423.396h476.981v-78.775h-472.274zM472.604 622.49h78.775v-476.981h-78.712z" />
<glyph unicode="&#xe031;" glyph-name="new_releases" data-tags="new_releases" d="M554 320.667v256h-84v-256h84zM554 148.667v86h-84v-86h84zM982 362.667l-104-118 14-158-154-34-80-136-146 62-146-62-80 134-154 36 14 158-104 118 104 120-14 156 154 34 80 136 146-62 146 62 80-136 154-34-14-158z" />
<glyph unicode="&#xe032;" glyph-name="add124" data-tags="add124" d="M918.966-128h-813.948c-57.901 0-105.018 47.117-105.018 105.034v813.933c0 57.917 47.117 105.034 105.018 105.034h813.948c57.901 0 105.018-47.117 105.018-105.034v-813.933c0-57.917-47.101-105.034-105.018-105.034zM105.018 843.483c-28.966 0-52.501-23.551-52.501-52.517v-813.933c0-28.966 23.551-52.517 52.501-52.517h813.948c28.95 0 52.517 23.551 52.517 52.517v813.933c0 28.966-23.566 52.517-52.517 52.517h-813.948zM273.494 423.396h476.981v-78.775h-472.274zM472.604 622.49h78.775v-476.981h-78.712z" />
<glyph unicode="&#xe033;" glyph-name="not_interested" data-tags="not_interested" d="M782 152.667c46 58 72 132 72 210 0 188-154 342-342 342-78 0-152-26-210-72zM512 20.667c78 0 152 26 210 72l-480 480c-46-58-72-132-72-210 0-188 154-342 342-342zM512 788.667c236 0 426-190 426-426s-190-426-426-426-426 190-426 426 190 426 426 426z" />
<glyph unicode="&#xe034;" glyph-name="arrow587" data-tags="arrow587" d="M918.966-128h-813.933c-57.917 0-105.034 47.086-105.034 105.018v813.948c0 57.917 47.117 105.034 105.034 105.034h813.948c57.901 0 105.018-47.117 105.018-105.034v-813.948c-0.016-57.932-47.117-105.018-105.034-105.018zM105.034 843.483c-28.966 0-52.517-23.566-52.517-52.517v-813.948c0-28.95 23.551-52.517 52.517-52.517h813.948c28.95 0 52.501 23.566 52.501 52.517v813.948c0 28.95-23.551 52.517-52.501 52.517h-813.948zM578.205 317.795l195.112 75.265-470.133 199.709 199.693-470.054z" />
<glyph unicode="&#xe035;" glyph-name="back30" data-tags="back30" d="M918.966 896h-813.933c-57.917 0-105.034-47.117-105.034-105.034v-813.948c0-57.948 47.117-105.018 105.034-105.018h813.933c57.932 0 105.034 47.070 105.034 105.018v813.948c-0.016 57.917-47.117 105.034-105.034 105.034zM971.467-22.982c0-28.935-23.551-52.517-52.517-52.517h-813.917c-28.966 0-52.517 23.582-52.517 52.517v813.948c0 28.95 23.551 52.517 52.517 52.517h813.933c28.966 0 52.517-23.566 52.517-52.517v-813.948zM589.319 522.793l-138.786-138.786 138.786-138.801-55.728-55.713-138.786 138.786-0.362-0.362-55.713 55.713 0.362 0.378-0.378 0.378 55.728 55.728 0.378-0.378 138.786 138.786 55.713-55.728z" />
<glyph unicode="&#xe036;" glyph-name="back32" data-tags="back32" d="M918.966-128h-813.948c-57.901 0-105.018 47.086-105.018 105.018v813.948c0 57.917 47.117 105.034 105.018 105.034h813.948c57.901 0 105.018-47.117 105.018-105.034v-813.948c0-57.932-47.101-105.018-105.018-105.018zM105.018 843.483c-28.966 0-52.501-23.566-52.501-52.517v-813.948c0-28.95 23.551-52.517 52.501-52.517h813.948c28.95 0 52.517 23.566 52.517 52.517v813.948c0 28.95-23.566 52.517-52.517 52.517h-813.948zM750.475 380.765v236.011l-307.23-236.027 307.198-235.98zM273.494 622.506h78.775v-476.981h-78.712z" />
<glyph unicode="&#xe037;" glyph-name="building45" data-tags="building45" d="M918.966-128h-813.948c-57.901 0-105.018 47.086-105.018 105.018v813.948c0 57.917 47.117 105.034 105.018 105.034h813.948c57.901 0 105.018-47.117 105.018-105.034v-813.948c0-57.932-47.101-105.018-105.018-105.018zM105.018 843.483c-28.966 0-52.501-23.566-52.501-52.517v-813.948c0-28.935 23.551-52.517 52.501-52.517h813.948c28.95 0 52.501 23.582 52.501 52.517v813.948c0 28.95-23.551 52.517-52.501 52.517h-813.948zM665.387 644.372v-83.152h-78.712l-0.031 83.152h-170.696v-83.152h-78.76v83.152h-74.415v-520.729h477.028v520.729h-74.415zM415.9 228.661h-78.508v74.383h78.508v-74.383zM415.9 381.82h-78.508v74.383h78.508v-74.383zM540.533 228.661h-78.508v74.383h78.508v-74.383zM540.533 381.82h-78.508v74.383h78.508v-74.383zM665.324 229.732h-78.508v74.415h78.508v-74.415zM665.324 382.906h-78.508v74.399h78.508v-74.399z" />
<glyph unicode="&#xe038;" glyph-name="circular192" data-tags="circular192" d="M918.982-128h-813.948c-57.917 0-105.034 47.086-105.034 105.018v813.948c0 57.917 47.117 105.034 105.034 105.034h813.948c57.932 0 105.034-47.117 105.034-105.034v-813.948c0-57.932-47.101-105.018-105.034-105.018zM105.034 843.483c-28.95 0-52.517-23.566-52.517-52.517v-813.948c0-28.95 23.566-52.517 52.517-52.517h813.948c28.95 0 52.517 23.566 52.517 52.517v813.948c0 28.95-23.566 52.517-52.517 52.517h-813.948zM511.992 132.286c-138.786 0-251.675 112.905-251.675 251.706 0 138.786 112.889 251.675 251.675 251.675v-78.76c-95.352 0-172.899-77.579-172.899-172.915 0-95.384 77.563-172.915 172.899-172.915 95.384 0 172.915 77.547 172.915 172.915h78.775c0.016-138.801-112.873-251.706-251.691-251.706zM511.992 592.769v-96.297l118.179 96.297-118.147 96.297z" />
<glyph unicode="&#xe039;" glyph-name="circular199" data-tags="circular199" d="M918.966-128h-813.933c-57.917 0-105.034 47.117-105.034 105.034v813.933c0 57.917 47.117 105.034 105.034 105.034h813.933c57.948 0 105.034-47.117 105.034-105.034v-813.948c0-57.901-47.086-105.018-105.034-105.018zM105.034 843.483c-28.95 0-52.517-23.551-52.517-52.517v-813.948c0-28.95 23.566-52.501 52.517-52.501h813.933c28.95 0 52.517 23.551 52.517 52.501v813.948c0 28.966-23.566 52.517-52.517 52.517h-813.933zM711.213 361.118c0-122.634-99.461-222.047-222.063-222.047-122.65 0-222.11 99.429-222.11 222.047s99.461 222.032 222.11 222.032v-222.032h222.063zM756.976 433.124c0 122.634-73.202 195.805-195.852 195.805v-195.805h195.852z" />
<glyph unicode="&#xe03a;" glyph-name="circular202" data-tags="circular202" d="M918.966-128h-813.948c-57.901 0-105.018 47.117-105.018 105.034v813.933c0 57.917 47.117 105.034 105.018 105.034h813.948c57.901 0 105.018-47.117 105.018-105.034v-813.948c0-57.901-47.101-105.018-105.018-105.018zM105.018 843.483c-28.966 0-52.501-23.551-52.501-52.517v-813.948c0-28.95 23.551-52.501 52.501-52.501h813.948c28.95 0 52.501 23.551 52.501 52.501v813.948c0 28.966-23.551 52.517-52.501 52.517h-813.948zM314.849 384.197c0 112.376 84.578 196.954 199.756 196.954 93.485 0 178.063-84.578 178.063-196.954 0-96.287-84.578-180.865-178.063-180.865-115.178 0-199.756 84.578-199.756 180.865zM571.074 248.371l-68.070-68.070 215.074 0.126-78.917 136.031z" />
<glyph unicode="&#xe03b;" glyph-name="close37" data-tags="close37" d="M918.966 896h-813.933c-57.917 0-105.034-47.117-105.034-105.034v-813.933c0-57.932 47.117-105.034 105.034-105.034h813.948c57.948 0 105.034 47.101 105.034 105.034v813.933c-0.016 57.917-47.101 105.034-105.049 105.034zM971.483-22.966c0-28.966-23.551-52.517-52.517-52.517h-813.933c-28.95 0-52.517 23.551-52.517 52.517v813.933c0 28.966 23.566 52.517 52.517 52.517h813.948c28.966 0 52.517-23.551 52.517-52.517v-813.933zM708.474 524.777l-55.713 55.713-140.753-140.769-140.769 140.769-55.728-55.728 140.769-140.753-140.785-140.801 55.713-55.713 140.785 140.801 140.801-140.816 55.713 55.728-140.785 140.801z" />
<glyph unicode="&#xe03c;" glyph-name="compass73" data-tags="compass73" d="M918.966-128h-813.933c-57.917 0-105.034 47.086-105.034 105.018v813.948c0 57.917 47.117 105.034 105.034 105.034h813.933c57.917 0 105.018-47.117 105.018-105.034v-813.948c0-57.932-47.101-105.018-105.018-105.018zM105.034 843.483c-28.966 0-52.517-23.566-52.517-52.517v-813.948c0-28.95 23.551-52.517 52.517-52.517h813.933c28.966 0 52.517 23.566 52.517 52.517v813.948c0 28.95-23.551 52.517-52.517 52.517h-813.933zM532.095 403.277l68.086-68.055 100.547 236.719-236.688-100.563zM491.905 364.708l-68.086 68.102-100.563-236.735 236.704 100.547z" />
<glyph unicode="&#xe03d;" glyph-name="cut22" data-tags="cut22" d="M918.966-128h-813.948c-57.901 0-105.018 47.117-105.018 105.034v813.933c0 57.917 47.117 105.034 105.018 105.034h813.948c57.948 0 105.034-47.117 105.034-105.034v-813.933c0-57.917-47.086-105.034-105.034-105.034zM105.018 843.483c-28.966 0-52.501-23.551-52.501-52.517v-813.933c0-28.966 23.551-52.517 52.501-52.517h813.948c28.95 0 52.517 23.551 52.517 52.517v813.933c0 28.966-23.566 52.517-52.517 52.517h-813.948zM378.528 607.173h78.775v-371.963h-78.712zM378.528 313.985h371.931v-78.775h-362.077zM273.494 567.801h56.878v-78.775h-47.227zM520.761 565.597h203.44v-78.775h-188.91zM645.441 565.597h78.76v-188.17h-78.712zM645.441 191.446h78.76v-56.878h-78.712z" />
<glyph unicode="&#xe03e;" glyph-name="design17" data-tags="design17" d="M918.966-128h-813.933c-57.917 0-105.034 47.101-105.034 105.034v813.948c0 57.917 47.117 105.018 105.034 105.018h813.933c57.917 0 105.018-47.101 105.018-105.018v-813.948c0-57.932-47.101-105.034-105.018-105.034zM105.034 843.483c-28.966 0-52.517-23.566-52.517-52.501v-813.948c0-28.95 23.551-52.517 52.517-52.517h813.933c28.966 0 52.517 23.566 52.517 52.517v813.948c0 28.935-23.551 52.501-52.517 52.501h-813.933zM273.51 423.411h78.775v-277.87h-78.712zM431.060 423.411h319.446v-277.87h-314.849zM273.51 622.506h476.981v-120.335h-472.274z" />
<glyph unicode="&#xe03f;" glyph-name="double91" data-tags="double91" d="M918.966 896h-813.948c-57.901 0-105.018-47.117-105.018-105.034v-813.948c0-57.948 47.117-105.018 105.018-105.018h813.948c57.932 0 105.034 47.070 105.034 105.018v813.948c-0.016 57.917-47.133 105.034-105.034 105.034zM971.467-22.982c0-28.935-23.551-52.517-52.517-52.517h-813.933c-28.95 0-52.501 23.582-52.501 52.517v813.948c0 28.95 23.535 52.517 52.501 52.517h813.948c28.966 0 52.517-23.566 52.517-52.517v-813.948zM615.656 544.156l-263.009-263.025 55.681-55.697 263.025 263.025 40.253-40.253 15.459 151.647-151.616-15.491zM312.425 321.321l-15.459-151.616 151.616 15.491-68.086 68.086z" />
<glyph unicode="&#xe040;" glyph-name="download113" data-tags="download113" d="M918.966 896h-813.933c-57.917 0-105.034-47.117-105.034-105.034v-813.948c0-57.948 47.117-105.018 105.034-105.018h813.933c57.964 0 105.034 47.070 105.034 105.018v813.948c0 57.917-47.070 105.034-105.034 105.034zM971.483-22.982c0-28.935-23.566-52.517-52.517-52.517h-813.933c-28.95 0-52.517 23.582-52.517 52.517v813.948c0 28.95 23.566 52.517 52.517 52.517h813.933c28.95 0 52.517-23.566 52.517-52.517v-813.948zM273.132 245.836h476.997v-78.791h-472.274zM455.902 406.079l55.713-55.681 0.362 0.362 0.394-0.394 55.713 55.713-0.394 0.394 138.817 138.817-55.681 55.697-138.833-138.817-138.817 138.801-55.697-55.697 138.801-138.817z" />
<glyph unicode="&#xe041;" glyph-name="download121" data-tags="download121" d="M918.966-128h-813.933c-57.917 0-105.034 47.101-105.034 105.034v813.948c0 57.917 47.117 105.018 105.034 105.018h813.933c57.948 0 105.034-47.101 105.034-105.018v-813.948c0-57.932-47.086-105.034-105.034-105.034zM105.034 843.483c-28.95 0-52.517-23.566-52.517-52.501v-813.948c0-28.95 23.566-52.517 52.517-52.517h813.933c28.95 0 52.517 23.566 52.517 52.517v813.948c0 28.935-23.566 52.501-52.517 52.501h-813.933zM676.202 392.084c-3.605 73.675-55.492 134.535-124.806 151.584v-146.594h56.878l-96.281-118.147-96.281 118.147h56.925v146.247c-55.177-13.68-99.571-54.705-117.045-108.229-47.101-12.358-82.097-54.862-82.097-105.852 0-60.656 49.195-109.804 109.804-109.804h280.263c48.046 0 86.946 38.931 86.946 86.93 0.016 43.717-32.304 79.547-74.304 85.718z" />
<glyph unicode="&#xe042;" glyph-name="edition" data-tags="edition" d="M918.966 896h-813.933c-57.917 0-105.034-47.117-105.034-105.034v-813.933c0-57.932 47.117-105.034 105.034-105.034h813.948c57.948 0 105.034 47.101 105.034 105.034v813.933c-0.016 57.917-47.101 105.034-105.049 105.034zM971.483-22.966c0-28.966-23.551-52.517-52.517-52.517h-813.933c-28.95 0-52.517 23.551-52.517 52.517v813.933c0 28.966 23.566 52.517 52.517 52.517h813.948c28.966 0 52.517-23.551 52.517-52.517v-813.933zM619.985 549.839l55.697-55.713-263.025-263.009-55.697 55.697 263.025 263.025zM366.248 240.405l28.494-28.525-93.92-36.885 36.9 93.935 28.525-28.525zM695.345 625.214l55.713-55.697-56.799-56.799-55.697 55.697 56.783 56.799z" />
<glyph unicode="&#xe043;" glyph-name="eject20" data-tags="eject20" d="M918.966-128h-813.933c-57.917 0-105.034 47.086-105.034 105.018v813.948c0 57.917 47.117 105.034 105.034 105.034h813.933c57.948 0 105.034-47.117 105.034-105.034v-813.948c0-57.932-47.086-105.018-105.034-105.018zM105.034 843.483c-28.95 0-52.517-23.566-52.517-52.517v-813.948c0-28.95 23.566-52.517 52.517-52.517h813.933c28.95 0 52.517 23.566 52.517 52.517v813.948c0 28.95-23.566 52.517-52.517 52.517h-813.933zM531.166 324.36h236.011l-236.027 307.277-235.964-307.214zM289.441 233.431h476.981v-78.807h-472.274z" />
<glyph unicode="&#xe044;" glyph-name="favorite13" data-tags="favorite13" d="M918.966-128h-813.948c-57.901 0-105.018 47.117-105.018 105.034v813.933c0 57.917 47.117 105.034 105.018 105.034h813.948c57.901 0 105.018-47.117 105.018-105.034v-813.933c0-57.917-47.101-105.034-105.018-105.034zM105.018 843.483c-28.966 0-52.501-23.551-52.501-52.517v-813.933c0-28.966 23.551-52.517 52.501-52.517h813.948c28.95 0 52.501 23.551 52.501 52.517v813.933c0 28.966-23.551 52.517-52.501 52.517h-813.948zM507.789 396.948l1.606-4.943h5.195l-4.187-3.070 1.59-4.943-4.203 3.070-4.203-3.070 1.606 4.943-4.203 3.070h5.211zM620.206 235.068l-112.417 81.688-112.417-81.688 42.945 132.142-112.37 81.656h138.896l42.945 132.426 42.945-132.426h138.911l-112.385-81.656zM553.694 326.611l-45.905 33.358-45.905-33.358 17.553 53.965-45.842 33.327h56.689l17.506 53.886 17.506-53.886h56.704l-45.842-33.327zM661.971 177.608l-154.182 112.055-154.182-112.055 58.956 181.259-154.009 111.913h190.405l58.83 181.007 58.845-181.007h190.374l-153.993-111.913z" />
<glyph unicode="&#xe045;" glyph-name="flag47" data-tags="flag47" d="M918.966-128h-813.933c-57.917 0-105.034 47.117-105.034 105.034v813.933c0 57.917 47.117 105.034 105.034 105.034h813.933c57.917 0 105.018-47.117 105.018-105.034v-813.933c0-57.917-47.101-105.034-105.018-105.034zM105.034 843.483c-28.966 0-52.517-23.551-52.517-52.517v-813.933c0-28.966 23.551-52.517 52.517-52.517h813.933c28.966 0 52.517 23.551 52.517 52.517v813.933c0 28.966-23.551 52.517-52.517 52.517h-813.933zM335.314 622.49h78.775v-476.981h-78.712zM688.686 421.223c-91.527 36.223-183.053-36.223-274.58 0 0 67.094 0 134.189 0 201.283 91.527-36.223 183.053 36.223 274.58 0 0-67.094 0-134.189 0-201.283z" />
<glyph unicode="&#xe046;" glyph-name="four81" data-tags="four81" d="M918.966-128h-813.948c-57.901 0-105.018 47.117-105.018 105.034v813.933c0 57.917 47.117 105.034 105.018 105.034h813.948c57.948 0 105.034-47.117 105.034-105.034v-813.948c0-57.901-47.086-105.018-105.034-105.018zM105.018 843.483c-28.966 0-52.501-23.551-52.501-52.517v-813.948c0-28.95 23.551-52.501 52.501-52.501h813.948c28.95 0 52.517 23.551 52.517 52.501v813.948c0 28.966-23.566 52.517-52.517 52.517h-813.948zM272.943 624.71h201.315v-201.315h-188.91zM550.813 624.71h201.299v-201.315h-188.91zM271.857 344.604h201.315v-201.315h-188.91zM549.758 344.604h201.267v-201.315h-188.91z" />
<glyph unicode="&#xe047;" glyph-name="gps15" data-tags="gps15" d="M918.966-128h-813.948c-57.901 0-105.018 47.117-105.018 105.034v813.933c0 57.917 47.117 105.034 105.018 105.034h813.948c57.948 0 105.034-47.117 105.034-105.034v-813.933c0-57.917-47.086-105.034-105.034-105.034zM105.018 843.483c-28.966 0-52.501-23.551-52.501-52.517v-813.933c0-28.966 23.551-52.517 52.501-52.517h813.948c28.95 0 52.517 23.551 52.517 52.517v813.933c0 28.966-23.566 52.517-52.517 52.517h-813.948zM218.804 425.568h105.034v-78.775h-94.455zM470.416 196.767h78.791v-101.586h-78.712zM511.992 179.466c-112.779 0-204.542 91.747-204.542 204.526s91.763 204.526 204.542 204.526c112.795 0 204.526-91.747 204.526-204.526s-91.731-204.526-204.526-204.526zM511.992 509.743c-69.346 0-125.767-56.405-125.767-125.751s56.421-125.751 125.767-125.751c69.361 0 125.767 56.405 125.767 125.751s-56.39 125.751-125.767 125.751zM685.931 425.568h114.888v-78.775h-110.197zM472.604 677.18h78.791v-108.198h-78.712z" />
<glyph unicode="&#xe048;" glyph-name="heart265" data-tags="heart265" d="M918.966-128h-813.933c-57.917 0-105.034 47.117-105.034 105.034v813.933c0 57.917 47.117 105.034 105.034 105.034h813.948c57.901 0 105.018-47.117 105.018-105.034v-813.933c-0.016-57.917-47.117-105.034-105.034-105.034zM105.034 843.483c-28.966 0-52.517-23.551-52.517-52.517v-813.933c0-28.966 23.551-52.517 52.517-52.517h813.948c28.95 0 52.501 23.551 52.501 52.517v813.933c0 28.966-23.551 52.517-52.501 52.517h-813.948zM511.992 184.881c255.988 126.491 238.483 248.888 238.483 248.888s10.941 149.333-101.208 149.333c-112.165 0-137.274-91.243-137.274-91.243s-25.125 91.243-137.29 91.243c-112.149 0-101.208-149.333-101.208-149.333s-17.49-122.398 238.498-248.888z" />
<glyph unicode="&#xe049;" glyph-name="home127" data-tags="home127" d="M918.982-128h-813.948c-57.917 0-105.034 47.117-105.034 105.034v813.933c0 57.917 47.117 105.034 105.034 105.034h813.948c57.932 0 105.034-47.117 105.034-105.034v-813.948c0-57.901-47.101-105.018-105.034-105.018zM105.034 843.483c-28.95 0-52.517-23.551-52.517-52.517v-813.948c0-28.95 23.566-52.501 52.517-52.501h813.948c28.95 0 52.517 23.551 52.517 52.501v813.948c0 28.966-23.566 52.517-52.517 52.517h-813.948zM352.269 155.978h120.335v204.558h78.791v-204.573h120.351l0.031 323.035h-319.525z" />
<glyph unicode="&#xe04a;" glyph-name="image68" data-tags="image68" d="M918.966-128h-813.948c-57.901 0-105.018 47.117-105.018 105.034v813.933c0 57.917 47.117 105.034 105.018 105.034h813.948c57.901 0 105.018-47.117 105.018-105.034v-813.933c0-57.917-47.101-105.034-105.018-105.034zM105.018 843.483c-28.966 0-52.501-23.551-52.501-52.517v-813.933c0-28.966 23.551-52.517 52.501-52.517h813.948c28.95 0 52.501 23.551 52.501 52.517v813.933c0 28.966-23.551 52.517-52.501 52.517h-813.948zM283.364 550.894c0 49.292 28.193 77.484 62.97 77.484s62.97-28.193 62.97-77.484c0-20.263-28.193-48.455-62.97-48.455s-62.97 28.193-62.97 48.455zM273.525 141.149l133.465 231.918 83.136-105.034 161.911 227.557 98.453-354.442z" />
<glyph unicode="&#xe04b;" glyph-name="internet29" data-tags="internet29" d="M918.966-128h-813.933c-57.932 0-105.034 47.101-105.034 105.034v813.948c0 57.917 47.101 105.018 105.034 105.018h813.933c57.932 0 105.034-47.101 105.034-105.018v-813.948c0-57.932-47.101-105.034-105.034-105.034zM105.034 843.483c-28.95 0-52.517-23.566-52.517-52.501v-813.948c0-28.95 23.566-52.517 52.517-52.517h813.933c28.95 0 52.517 23.566 52.517 52.517v813.948c0 28.935-23.566 52.501-52.517 52.501h-813.933zM493.101 329.24c0 60.608-49.132 109.804-109.804 109.804-60.624 0-109.804-49.195-109.804-109.804 0-60.656 49.179-109.804 109.804-109.804h280.263c48.046 0 86.946 38.931 86.946 86.93 0 48.030-38.915 86.946-86.946 86.946s-86.961-38.931-86.961-86.946M676.611 384.008c0 90.913-73.612 164.619-164.556 164.619-90.897 0-164.619-73.706-164.619-164.619l142.17-108.513 144.406-9.855 42.599 118.368z" />
<glyph unicode="&#xe04c;" glyph-name="left139" data-tags="left139" d="M918.966-128h-813.948c-57.901 0-105.018 47.101-105.018 105.034v813.948c0 57.917 47.117 105.018 105.018 105.018h813.948c57.948 0 105.034-47.101 105.034-105.018v-813.948c0-57.932-47.086-105.034-105.034-105.034zM105.018 843.483c-28.966 0-52.501-23.566-52.501-52.501v-813.948c0-28.95 23.551-52.517 52.501-52.517h813.948c28.95 0 52.517 23.566 52.517 52.517v813.948c0 28.935-23.566 52.501-52.517 52.501h-813.948zM266.913 572.461h371.963v-78.775h-362.077zM638.908 533.010v-96.249l118.147 96.249-118.131 96.328zM385.092 269.403h371.963v-78.76h-362.077zM385.092 230.047v96.281l-118.147-96.281 118.131-96.265z" />
<glyph unicode="&#xe04d;" glyph-name="letter50" data-tags="letter50" d="M918.982-128h-813.948c-57.917 0-105.034 47.101-105.034 105.034v813.948c0 57.917 47.117 105.018 105.034 105.018h813.948c57.932 0 105.034-47.101 105.034-105.018v-813.948c0-57.932-47.101-105.034-105.034-105.034zM105.034 843.483c-28.95 0-52.517-23.566-52.517-52.501v-813.948c0-28.95 23.566-52.517 52.517-52.517h813.948c28.95 0 52.517 23.566 52.517 52.517v813.948c0 28.935-23.566 52.501-52.517 52.501h-813.948zM326.042 567.534h371.931v-78.791h-362.077zM472.604 567.534h78.807v-371.979h-78.712z" />
<glyph unicode="&#xe04e;" glyph-name="list56" data-tags="list56" d="M918.966-128h-813.948c-57.901 0-105.018 47.101-105.018 105.034v813.948c0 57.917 47.117 105.018 105.018 105.018h813.948c57.901 0 105.018-47.101 105.018-105.018v-813.948c0-57.932-47.101-105.034-105.018-105.034zM105.018 843.483c-28.966 0-52.501-23.566-52.501-52.501v-813.948c0-28.95 23.551-52.517 52.501-52.517h813.948c28.95 0 52.501 23.566 52.501 52.517v813.948c0 28.935-23.551 52.501-52.501 52.501h-813.948zM433.642 421.506h319.446v-78.791h-314.849zM433.658 570.32h319.446v-78.76h-314.849zM433.658 268.364h319.446v-78.775h-314.849zM276.123 421.506h83.152v-78.791h-78.712zM276.123 570.32h83.152v-78.76h-78.712zM276.123 268.364h83.152v-78.775h-78.712z" />
<glyph unicode="&#xe04f;" glyph-name="lock57" data-tags="lock57" d="M918.966-128h-813.933c-57.932 0-105.034 47.117-105.034 105.034v813.933c0 57.917 47.101 105.034 105.034 105.034h813.933c57.932 0 105.034-47.117 105.034-105.034v-813.933c0-57.917-47.101-105.034-105.034-105.034zM105.034 843.483c-28.95 0-52.517-23.551-52.517-52.517v-813.933c0-28.966 23.566-52.517 52.517-52.517h813.933c28.95 0 52.517 23.551 52.517 52.517v813.933c0 28.966-23.566 52.517-52.517 52.517h-813.933zM273.494 454.015h477.028v-310.678h-472.274zM597.332 296.464h-170.664c-43.433 0-78.76 35.342-78.76 78.76v210.067c0 43.433 35.326 78.775 78.76 78.775h170.68c43.449 0 78.775-35.342 78.775-78.775v-210.067c-0.016-43.418-35.342-78.76-78.791-78.76zM426.668 585.291v-210.067h170.727l-0.047 210.067h-170.68z" />
<glyph unicode="&#xe050;" glyph-name="volume_up" data-tags="volume_up" d="M598 736.667c172-38 298-192 298-374s-126-336-298-374v88c124 36 212 150 212 286s-88 250-212 286v88zM704 362.667c0-76-42-140-106-172v344c64-32 106-96 106-172zM128 490.667h170l214 214v-684l-214 214h-170v256z" />
<glyph unicode="&#xe051;" glyph-name="web" data-tags="web" d="M854 106.667v384h-172v-384h172zM640 320.667v170h-470v-170h470zM640 106.667v170h-470v-170h470zM854 704.667c46 0 84-40 84-86v-512c0-46-38-86-84-86h-684c-46 0-84 40-84 86v512c0 46 38 86 84 86h684z" />
<glyph unicode="&#xe052;" glyph-name="menu32" data-tags="menu32" d="M918.966-128h-813.948c-57.901 0-105.018 47.117-105.018 105.034v813.933c0 57.917 47.117 105.034 105.018 105.034h813.948c57.901 0 105.018-47.117 105.018-105.034v-813.933c0-57.917-47.101-105.034-105.018-105.034zM105.018 843.483c-28.966 0-52.501-23.551-52.501-52.517v-813.933c0-28.966 23.551-52.517 52.501-52.517h813.948c28.95 0 52.517 23.551 52.517 52.517v813.933c0 28.966-23.566 52.517-52.517 52.517h-813.948zM273.494 425.568h476.981v-78.775h-472.274zM273.525 626.883h476.981v-78.775h-472.274zM273.525 219.924h476.981v-78.775h-472.274z" />
<glyph unicode="&#xe053;" glyph-name="minus67" data-tags="minus67" d="M918.966-128h-813.933c-57.917 0-105.034 47.117-105.034 105.034v813.933c0 57.917 47.117 105.034 105.034 105.034h813.948c57.901 0 105.018-47.117 105.018-105.034v-813.933c-0.016-57.917-47.117-105.034-105.034-105.034zM105.034 843.483c-28.966 0-52.517-23.551-52.517-52.517v-813.933c0-28.966 23.551-52.517 52.517-52.517h813.948c28.95 0 52.501 23.551 52.501 52.517v813.933c0 28.966-23.551 52.517-52.501 52.517h-813.948zM273.51 423.396h476.981v-78.775h-472.274z" />
<glyph unicode="&#xe054;" glyph-name="monitor62" data-tags="monitor62" d="M918.966-128h-813.948c-57.901 0-105.018 47.086-105.018 105.018v813.948c0 57.917 47.117 105.034 105.018 105.034h813.948c57.948 0 105.034-47.117 105.034-105.034v-813.948c0-57.932-47.086-105.018-105.034-105.018zM105.018 843.483c-28.966 0-52.501-23.566-52.501-52.517v-813.948c0-28.935 23.551-52.517 52.501-52.517h813.948c28.95 0 52.517 23.582 52.517 52.517v813.948c0 28.95-23.566 52.517-52.517 52.517h-813.948zM280.058 628.756v-389.484h477.012v389.484h-477.012zM678.311 318.047h-319.493v231.949h319.493v-231.949zM518.557 107.995l158.7 0.016-158.7 194.781-158.684-194.797z" />
<glyph unicode="&#xe055;" glyph-name="airplay" data-tags="airplay" d="M896 746.667c46 0 86-40 86-86v-512c0-46-40-84-86-84h-170v84h170v512h-768v-512h170v-84h-170c-46 0-86 38-86 84v512c0 46 40 86 86 86h768zM256-63.333l256 256 256-256h-512z" />
<glyph unicode="&#xe056;" glyph-name="move21" data-tags="move21" d="M918.966 896h-813.933c-57.917 0-105.034-47.117-105.034-105.034v-813.933c0-57.932 47.117-105.034 105.034-105.034h813.933c57.964 0 105.034 47.101 105.034 105.034v813.933c0 57.917-47.070 105.034-105.034 105.034zM971.483-22.966c0-28.966-23.566-52.517-52.517-52.517h-813.933c-28.95 0-52.517 23.551-52.517 52.517v813.933c0 28.966 23.566 52.517 52.517 52.517h813.933c28.95 0 52.517-23.551 52.517-52.517v-813.933zM643.52 517.677l68.070-68.070 15.459 151.616-151.584-15.459zM664.678 275.81l6.706 6.722-103.68 103.68 103.633 103.601-55.697 55.697-103.617-103.617-103.664 103.664 40.191 40.222-151.616 15.459 15.475-151.616 40.206 40.206 103.68-103.68-103.648-103.648-40.238 40.238-15.459-151.616 151.6 15.491-40.222 40.206 103.648 103.633 103.664-103.664-41.749-41.765 151.647-15.459-15.475 151.616z" />
<glyph unicode="&#xe057;" glyph-name="new65" data-tags="new65" d="M918.966-128h-813.948c-57.901 0-105.018 47.117-105.018 105.034v813.933c0 57.917 47.117 105.034 105.018 105.034h813.948c57.901 0 105.018-47.117 105.018-105.034v-813.948c0-57.901-47.101-105.018-105.018-105.018zM105.018 843.483c-28.966 0-52.501-23.551-52.501-52.517v-813.948c0-28.95 23.551-52.501 52.501-52.501h813.948c28.95 0 52.517 23.551 52.517 52.501v813.948c0 28.966-23.566 52.517-52.517 52.517h-813.948zM501.539 301.061l-0.582-0.992-0.567 0.315-0.551-0.315-0.582 0.992-225.763 133.103v-224.094h476.981v237.758zM500.39 391.832l250.085 147.444v18.655h-476.981v-32.319z" />
<glyph unicode="&#xe058;" glyph-name="phone337" data-tags="phone337" d="M918.982-128h-813.948c-57.917 0-105.034 47.086-105.034 105.018v813.948c0 57.917 47.117 105.034 105.034 105.034h813.948c57.932 0 105.034-47.117 105.034-105.034v-813.948c0-57.932-47.101-105.018-105.034-105.018zM105.034 843.483c-28.95 0-52.517-23.566-52.517-52.517v-813.948c0-28.95 23.566-52.517 52.517-52.517h813.948c28.95 0 52.517 23.566 52.517 52.517v813.948c0 28.95-23.566 52.517-52.517 52.517h-813.948zM273.51 624.427h78.775v-78.791h-78.712zM472.604 625.466h78.807v-78.76h-78.712zM671.715 625.466h78.775v-78.76h-78.712zM273.51 419.885h78.775v-78.76h-78.712zM472.604 420.94h78.807v-78.791h-78.712zM671.715 420.94h78.775v-78.791h-78.712zM273.51 216.933h78.76v-78.791h-78.712zM472.589 218.004h78.775v-78.775h-78.712zM671.715 218.004h78.76v-78.775h-78.712z" />
<glyph unicode="&#xe059;" glyph-name="play73" data-tags="play73" d="M918.966-128h-813.948c-57.901 0-105.018 47.086-105.018 105.018v813.948c0 57.917 47.117 105.034 105.018 105.034h813.948c57.948 0 105.034-47.117 105.034-105.034v-813.948c0-57.932-47.086-105.018-105.034-105.018zM105.018 843.483c-28.966 0-52.501-23.566-52.501-52.517v-813.948c0-28.95 23.551-52.517 52.501-52.517h813.948c28.95 0 52.517 23.566 52.517 52.517v813.948c0 28.95-23.566 52.517-52.517 52.517h-813.948zM271.321 386.857v-235.964l307.246 236.027-307.214 235.964zM669.495 622.128h78.807v-476.997h-78.712z" />
<glyph unicode="&#xe05a;" glyph-name="prohibition15" data-tags="prohibition15" d="M918.966 896h-813.933c-57.917 0-105.034-47.117-105.034-105.034v-813.933c0-57.932 47.117-105.034 105.034-105.034h813.933c57.964 0 105.034 47.101 105.034 105.034v813.933c0 57.917-47.070 105.034-105.034 105.034zM971.483-22.966c0-28.966-23.566-52.517-52.517-52.517h-813.933c-28.95 0-52.517 23.551-52.517 52.517v813.933c0 28.966 23.566 52.517 52.517 52.517h813.933c28.95 0 52.517-23.551 52.517-52.517v-813.933zM511.992 635.683c-138.786 0-251.675-112.905-251.675-251.691s112.889-251.691 251.675-251.691c138.801 0 251.706 112.921 251.706 251.691 0 138.786-112.921 251.691-251.706 251.691zM511.992 556.923c33.437 0 64.56-9.697 91.054-26.18l-237.79-237.79c-16.482 26.495-26.18 57.617-26.18 91.039 0 95.352 77.563 172.931 172.915 172.931zM511.992 211.077c-33.421 0-64.56 9.682-91.023 26.18l237.774 237.774c16.482-26.479 26.164-57.617 26.164-91.039 0-95.336-77.547-172.915-172.915-172.915z" />
<glyph unicode="&#xe05b;" glyph-name="rectangle11" data-tags="rectangle11" d="M918.982-128h-813.948c-57.917 0-105.034 47.086-105.034 105.018v813.948c0 57.917 47.117 105.034 105.034 105.034h813.948c57.932 0 105.034-47.117 105.034-105.034v-813.948c0-57.932-47.101-105.018-105.034-105.018zM105.034 843.483c-28.95 0-52.517-23.566-52.517-52.517v-813.948c0-28.935 23.566-52.517 52.517-52.517h813.948c28.95 0 52.517 23.582 52.517 52.517v813.948c0 28.95-23.566 52.517-52.517 52.517h-813.948zM706.758 628.756h-389.469v-522.24h389.453v522.24zM396.065 211.533v312.205h231.902v-312.205h-231.902z" />
<glyph unicode="&#xe05c;" glyph-name="add_to_queue" data-tags="add_to_queue" d="M682 448.667v-86h-128v-128h-84v128h-128v86h128v128h84v-128h128zM896 148.667v512h-768v-512h768zM896 746.667c46 0 86-38 86-86l-2-512c0-46-38-84-84-84h-214v-86h-340v86h-214c-48 0-86 38-86 84v512c0 48 38 86 86 86h768z" />
<glyph unicode="&#xe05d;" glyph-name="right125" data-tags="right125" d="M918.982 896h-813.948c-57.917 0-105.034-47.117-105.034-105.034v-813.948c0-57.948 47.117-105.018 105.034-105.018h813.933c57.932 0 105.034 47.070 105.034 105.018v813.948c-0.016 57.917-47.117 105.034-105.018 105.034zM971.467-22.982c0-28.935-23.551-52.517-52.485-52.517h-813.948c-28.966 0-52.517 23.582-52.517 52.517v813.948c0 28.95 23.551 52.517 52.517 52.517h813.964c28.935 0 52.485-23.566 52.485-52.517v-813.948zM607.864 440.083l-0.378-0.378-138.801 138.801-55.713-55.728 138.786-138.786-138.786-138.817 55.713-55.713 138.786 138.817 0.394-0.394 55.713 55.728-0.378 0.378 0.378 0.378z" />
<glyph unicode="&#xe05e;" glyph-name="fiber_new" data-tags="fiber_new" d="M874 276.667v214h-52v-192h-48v150h-54v-150h-48v192h-54v-214c0-24 20-42 44-42h170c24 0 42 18 42 42zM576 436.667v54h-170v-256h170v54h-106v46h106v54h-106v48h106zM362 234.667v256h-52v-150l-108 150h-52v-256h52v150l110-150h50zM854 704.667c48 0 84-38 84-86v-512c0-48-36-86-84-86h-684c-48 0-84 38-84 86v512c0 48 36 86 84 86h684z" />
<glyph unicode="&#xe05f;" glyph-name="tag40" data-tags="tag40" d="M918.982-128h-813.948c-57.917 0-105.034 47.117-105.034 105.034v813.933c0 57.917 47.117 105.034 105.034 105.034h813.948c57.932 0 105.034-47.117 105.034-105.034v-813.933c0-57.917-47.101-105.034-105.034-105.034zM105.034 843.483c-28.95 0-52.517-23.551-52.517-52.517v-813.933c0-28.966 23.566-52.517 52.517-52.517h813.948c28.95 0 52.517 23.551 52.517 52.517v813.933c0 28.966-23.566 52.517-52.517 52.517h-813.948zM751.923 428.181l-8.186 187.493-187.587 8.296-284.12-284.12 195.805-195.836 284.088 284.167zM638.924 470.576c-24.401 0-44.173 19.773-44.173 44.173 0 24.385 19.773 44.158 44.173 44.158 24.385 0 44.158-19.773 44.158-44.158 0-24.417-19.773-44.173-44.158-44.173z" />
<glyph unicode="&#xe060;" glyph-name="target39" data-tags="target39" d="M918.982-128h-813.948c-57.917 0-105.034 47.117-105.034 105.034v813.933c0 57.917 47.117 105.034 105.034 105.034h813.948c57.932 0 105.034-47.117 105.034-105.034v-813.933c0-57.917-47.101-105.034-105.034-105.034zM105.034 843.483c-28.95 0-52.517-23.551-52.517-52.517v-813.933c0-28.966 23.566-52.517 52.517-52.517h813.948c28.95 0 52.517 23.551 52.517 52.517v813.933c0 28.966-23.566 52.517-52.517 52.517h-813.948zM511.992 132.302c-138.786 0-251.675 112.905-251.675 251.691s112.889 251.691 251.675 251.691c138.801 0 251.706-112.905 251.706-251.691 0.016-138.77-112.889-251.691-251.706-251.691zM511.992 556.923c-95.352 0-172.899-77.579-172.899-172.931 0-95.336 77.563-172.915 172.899-172.915 95.384 0 172.915 77.579 172.915 172.915 0.016 95.352-77.532 172.931-172.915 172.931zM425.047 383.992c0 51.721 35.241 86.961 86.946 86.961 35.238 0 70.479-35.241 70.479-86.961 0-35.223-35.241-70.463-70.479-70.463-51.705 0-86.946 35.241-86.946 70.463z" />
<glyph unicode="&#xe061;" glyph-name="fiber_manual_record" data-tags="fiber_manual_record" d="M170 362.667c0 188 154 342 342 342s342-154 342-342-154-342-342-342-342 154-342 342z" />
<glyph unicode="&#xe062;" glyph-name="three136" data-tags="three136" d="M918.982-128h-813.948c-57.917 0-105.034 47.086-105.034 105.018v813.948c0 57.917 47.117 105.034 105.034 105.034h813.948c57.932 0 105.034-47.117 105.034-105.034v-813.948c0-57.932-47.101-105.018-105.034-105.018zM105.034 843.483c-28.95 0-52.517-23.566-52.517-52.517v-813.948c0-28.935 23.566-52.517 52.517-52.517h813.948c28.95 0 52.517 23.582 52.517 52.517v813.948c0 28.95-23.566 52.517-52.517 52.517h-813.948zM474.745 622.506h78.807v-476.981h-78.712zM676.076 622.506h78.76v-477.028h-78.712zM269.117 622.506h78.775v-477.028h-78.712z" />
<glyph unicode="&#xe063;" glyph-name="music_video" data-tags="music_video" d="M342 234.667c0 70 58 128 128 128 14 0 28-4 42-8v264h214v-86h-128v-300c0-70-58-126-128-126s-128 58-128 128zM896 64.667v596h-768v-596h768zM896 746.667c46 0 86-40 86-86v-596c0-46-40-86-86-86h-768c-46 0-86 40-86 86v596c0 46 40 86 86 86h768z" />
<glyph unicode="&#xe064;" glyph-name="three137" data-tags="three137" d="M918.982-128h-813.948c-57.917 0-105.034 47.117-105.034 105.034v813.933c0 57.917 47.117 105.034 105.034 105.034h813.948c57.932 0 105.034-47.117 105.034-105.034v-813.948c0-57.901-47.101-105.018-105.034-105.018zM105.034 843.483c-28.95 0-52.517-23.551-52.517-52.517v-813.948c0-28.95 23.566-52.501 52.517-52.501h813.948c28.95 0 52.517 23.551 52.517 52.501v813.948c0 28.966-23.566 52.517-52.517 52.517h-813.948zM474.777 622.49h78.791v-476.981h-78.712zM676.092 517.457h78.791v-371.963h-78.712zM269.133 412.423h78.791v-266.945h-78.712z" />
<glyph unicode="&#xe065;" glyph-name="two280" data-tags="two280" d="M918.966-128h-813.933c-57.932 0-105.034 47.117-105.034 105.034v813.933c0 57.917 47.101 105.034 105.034 105.034h813.933c57.932 0 105.034-47.117 105.034-105.034v-813.948c0-57.901-47.101-105.018-105.034-105.018zM105.034 843.483c-28.95 0-52.517-23.551-52.517-52.517v-813.948c0-28.95 23.566-52.501 52.517-52.501h813.933c28.95 0 52.517 23.551 52.517 52.501v813.948c0 28.966-23.566 52.517-52.517 52.517h-813.933zM273.494 539.339h477.028v-78.76h-472.274zM273.494 381.804h477.028v-153.158h-472.274z" />
<glyph unicode="&#xe066;" glyph-name="unlock26" data-tags="unlock26" d="M918.966-128h-813.933c-57.917 0-105.034 47.117-105.034 105.034v813.933c0 57.917 47.117 105.034 105.034 105.034h813.933c57.917 0 105.018-47.117 105.018-105.034v-813.948c0-57.901-47.101-105.018-105.018-105.018zM105.034 843.483c-28.966 0-52.517-23.551-52.517-52.517v-813.948c0-28.95 23.551-52.501 52.517-52.501h813.933c28.966 0 52.517 23.551 52.517 52.501v813.948c0 28.966-23.551 52.517-52.517 52.517h-813.933zM276.784 424.497h336.952v-284.419h-330.592zM375.237 627.953h78.775v-146.562h-78.712zM375.237 627.953h369.208v-78.775h-362.077zM668.425 627.953h78.775v-277.823h-78.712z" />
<glyph unicode="&#xe067;" glyph-name="unlock29" data-tags="unlock29" d="M918.966-128h-813.933c-57.932 0-105.034 47.117-105.034 105.034v813.933c0 57.917 47.101 105.034 105.034 105.034h813.933c57.932 0 105.034-47.117 105.034-105.034v-813.933c0-57.917-47.101-105.034-105.034-105.034zM105.034 843.483c-28.95 0-52.517-23.551-52.517-52.517v-813.933c0-28.966 23.566-52.517 52.517-52.517h813.933c28.95 0 52.517 23.551 52.517 52.517v813.933c0 28.966-23.566 52.517-52.517 52.517h-813.933zM273.494 454.015h477.028v-310.678h-472.274zM597.332 296.464h-170.664c-43.433 0-78.76 35.342-78.76 78.76v210.067c0 43.433 35.326 78.76 78.76 78.76h170.68c43.449 0 78.775-35.342 78.775-78.76v-68.37h-78.775v68.37h-170.68v-210.067h170.68v-78.76z" />
<glyph unicode="&#xe068;" glyph-name="unlock30" data-tags="unlock30" d="M918.966-128h-813.933c-57.932 0-105.034 47.086-105.034 105.018v813.948c0 57.917 47.101 105.034 105.034 105.034h813.933c57.932 0 105.034-47.117 105.034-105.034v-813.948c0-57.932-47.101-105.018-105.034-105.018zM105.034 843.483c-28.95 0-52.517-23.566-52.517-52.517v-813.948c0-28.935 23.566-52.517 52.517-52.517h813.933c28.95 0 52.517 23.582 52.517 52.517v813.948c0 28.95-23.566 52.517-52.517 52.517h-813.933zM269.149 622.506h78.76v-476.981h-78.712zM269.149 622.506h485.718v-78.775h-472.274zM269.149 462.752h485.718v-317.258h-472.274z" />
<glyph unicode="&#xe069;" glyph-name="web_asset" data-tags="web_asset" d="M810 106.667v426h-596v-426h596zM810 704.667c48 0 86-40 86-86v-512c0-46-40-86-86-86h-596c-48 0-86 40-86 86v512c0 46 38 86 86 86h596z" />
<glyph unicode="&#xe06a;" glyph-name="fiber_pin" data-tags="fiber_pin" d="M854 234.667v256h-54v-150l-106 150h-54v-256h54v150l108-150h52zM534 234.667v256h-64v-256h64zM384 384.667v42c0 36-28 64-64 64h-150v-256h64v86h86c36 0 64 28 64 64zM854 704.667c48 0 84-38 84-86v-512c0-48-36-86-84-86h-684c-48 0-84 38-84 86v512c0 48 36 86 84 86h684zM234 426.667h86v-42h-86v42z" />
<glyph unicode="&#xe06b;" glyph-name="upload74" data-tags="upload74" d="M918.966-128h-813.948c-57.901 0-105.018 47.086-105.018 105.018v813.948c0 57.917 47.117 105.034 105.018 105.034h813.948c57.901 0 105.018-47.117 105.018-105.034v-813.948c0-57.932-47.101-105.018-105.018-105.018zM105.018 843.483c-28.966 0-52.501-23.566-52.501-52.517v-813.948c0-28.95 23.551-52.517 52.501-52.517h813.948c28.95 0 52.501 23.566 52.501 52.517v813.948c0 28.95-23.551 52.517-52.501 52.517h-813.948zM501.303 242.609l191.176-84.726-191.208 473.643-191.192-473.581z" />
<glyph unicode="&#xe06c;" glyph-name="upload75" data-tags="upload75" d="M918.982-128h-813.948c-57.917 0-105.034 47.101-105.034 105.034v813.948c0 57.917 47.117 105.018 105.034 105.018h813.948c57.932 0 105.034-47.101 105.034-105.018v-813.948c0-57.932-47.101-105.034-105.034-105.034zM105.034 843.483c-28.95 0-52.517-23.566-52.517-52.501v-813.948c0-28.95 23.566-52.517 52.517-52.517h813.948c28.95 0 52.517 23.566 52.517 52.517v813.948c0 28.935-23.566 52.501-52.517 52.501h-813.948zM676.155 392.084c-4.235 87.087-75.91 156.527-164.162 156.527-73.045 0-134.929-47.668-156.433-113.535-47.133-12.358-82.113-54.862-82.113-105.852 0-60.656 49.179-109.804 109.804-109.804h89.354v106.876h-56.94l96.312 118.147 96.281-118.147h-56.846v-106.876h112.102c48.046 0 86.946 38.931 86.946 86.93 0.016 43.733-32.304 79.562-74.304 85.733z" />
<glyph unicode="&#xe06d;" glyph-name="video155" data-tags="video155" d="M918.966-128h-813.933c-57.917 0-105.034 47.117-105.034 105.034v813.933c0 57.917 47.117 105.034 105.034 105.034h813.948c57.901 0 105.018-47.117 105.018-105.034v-813.948c-0.016-57.901-47.117-105.018-105.034-105.018zM105.034 843.483c-28.966 0-52.517-23.551-52.517-52.517v-813.948c0-28.95 23.551-52.501 52.517-52.501h813.948c28.95 0 52.501 23.551 52.501 52.501v813.948c0 28.966-23.551 52.517-52.501 52.517h-813.948zM273.51 512.010h321.634v-256.004h-314.849zM750.475 383.992v126.931l-249.424-126.931 249.408-126.947z" />
<glyph unicode="&#xe06e;" glyph-name="video156" data-tags="video156" d="M918.966-128h-813.933c-57.932 0-105.034 47.086-105.034 105.018v813.948c0 57.917 47.101 105.034 105.034 105.034h813.933c57.932 0 105.034-47.117 105.034-105.034v-813.948c0-57.932-47.101-105.018-105.034-105.018zM105.034 843.483c-28.95 0-52.517-23.566-52.517-52.517v-813.948c0-28.95 23.566-52.517 52.517-52.517h813.933c28.95 0 52.517 23.566 52.517 52.517v813.948c0 28.95-23.566 52.517-52.517 52.517h-813.933zM299.784 513.852h398.19v-266.693h-393.562zM697.974 419.885h78.791v-78.76h-78.712z" />
<glyph unicode="&#xe06f;" glyph-name="zig4" data-tags="zig4" d="M918.966 896h-813.948c-57.901 0-105.018-47.101-105.018-105.018v-813.948c0-57.932 47.117-105.034 105.018-105.034h813.948c57.932 0 105.034 47.101 105.034 105.034v813.948c-0.016 57.917-47.133 105.018-105.034 105.018zM971.467-22.966c0-28.95-23.551-52.517-52.517-52.517h-813.933c-28.95 0-52.501 23.566-52.501 52.517v813.948c0 28.935 23.535 52.501 52.501 52.501h813.948c28.966 0 52.517-23.566 52.517-52.501v-813.948zM716.251 513.726l-156.165-156.134-159.361 159.298-159.345-159.345 55.681-55.697 103.696 103.696 159.361-159.377 211.831 211.862z" />
</font>
</defs>
</svg>
